#VERSION:0.83;
#TITLE:Grojband - Song #23 You're Going Down From The Episode 12 (Original Version) (HQ);
#SUBTITLE:;
#ARTIST:Dancing Monkeys Project;
#TITLETRANSLIT:;
#SUBTITLETRANSLIT:;
#ARTISTTRANSLIT:;
#GENRE:;
#ORIGIN:;
#CREDIT:Gorilla v1.1.3 (Dancing Monkeys v1.06);
#BANNER:;
#BACKGROUND:;
#PREVIEWVID:;
#JACKET:;
#CDIMAGE:;
#DISCIMAGE:;
#LYRICSPATH:;
#CDTITLE:;
#MUSIC:Grojband - Song #23 You're Going Down From The Episode 12 (Original Version) (HQ).mp3;
#OFFSET:-1.869184;
#SAMPLESTART:44.690041;
#SAMPLELENGTH:12.000000;
#SELECTABLE:YES;
#BPMS:0.000=140.119;
#STOPS:;
#DELAYS:;
#WARPS:;
#TIMESIGNATURES:0.000=4=4;
#TICKCOUNTS:0.000=4;
#COMBOS:0.000=1;
#SPEEDS:0.000=1.000=0.000=0;
#SCROLLS:0.000=1.000;
#FAKES:;
#LABELS:0.000=Song Start;
#BGCHANGES:;
#KEYSOUNDS:;
#ATTACKS:
;

//---------------dance-single - Basic----------------
#NOTEDATA:;
#CHARTNAME:Basic;
#STEPSTYPE:dance-single;
#DESCRIPTION:Basic;
#CHARTSTYLE:;
#DIFFICULTY:Easy;
#METER:3;
#RADARVALUES:0.150131,0.163796,0.000000,0.049262,0.000000,64.000000,64.000000,0.000000,3.000000,0.000000,0.000000,0.000000,0.000000,0.000000,0.150131,0.163796,0.000000,0.049262,0.000000,64.000000,64.000000,0.000000,3.000000,0.000000,0.000000,0.000000,0.000000,0.000000;
#CREDIT:Basic;
#NOTES:
// measure 0
1000
0000
0001
0000
,  // measure 1
1000
0000
0010
0000
,  // measure 2
1000
0000
0001
0000
,  // measure 3
0010
0000
1000
0000
,  // measure 4
0001
0000
0010
0000
,  // measure 5
1000
0000
0001
0000
,  // measure 6
1000
0000
0010
0000
,  // measure 7
0001
0000
1000
0000
,  // measure 8
0001
0000
0010
0000
,  // measure 9
1000
0000
0010
0000
,  // measure 10
0001
0000
0010
0000
,  // measure 11
1000
0000
0100
0000
,  // measure 12
0010
0000
0001
0000
,  // measure 13
1000
0000
0010
0000
,  // measure 14
0001
0000
1000
0000
,  // measure 15
0001
0000
0010
0000
,  // measure 16
1000
0000
0001
0000
,  // measure 17
1000
0000
0010
0000
,  // measure 18
0001
0000
0100
0000
,  // measure 19
1000
0000
0010
0000
,  // measure 20
0001
0000
0010
0000
,  // measure 21
1000
0000
0010
0000
,  // measure 22
0001
0000
1000
0000
,  // measure 23
0001
0000
0100
0000
,  // measure 24
0001
0000
0010
0000
,  // measure 25
1000
0000
0100
0000
,  // measure 26
0001
0000
0010
0000
,  // measure 27
0002
0000
0000
0003
,  // measure 28
0000
0010
0000
0100
,  // measure 29
0000
0010
0000
0010
,  // measure 30
0010
0010
0010
0000
,  // measure 31
0200
0000
0300
0000
,  // measure 32
2000
0000
0000
0000
,  // measure 33
0000
3000
0000
0000
;
