#VERSION:0.83;
#TITLE:Gravity Falls Theme;
#SUBTITLE:;
#ARTIST:Gravity Falls;
#TITLETRANSLIT:;
#SUBTITLETRANSLIT:;
#ARTISTTRANSLIT:;
#GENRE:;
#ORIGIN:;
#CREDIT:Gorilla v1.1.3 (Dancing Monkeys v1.06);
#BANNER:;
#BACKGROUND:;
#PREVIEWVID:;
#JACKET:;
#CDIMAGE:;
#DISCIMAGE:;
#LYRICSPATH:;
#CDTITLE:;
#MUSIC:Gravity Falls - Opening Theme Song - HD.mp3;
#OFFSET:-0.544082;
#SAMPLESTART:0.544082;
#SAMPLELENGTH:12.000000;
#SELECTABLE:YES;
#BPMS:0.000=165.000;
#STOPS:;
#DELAYS:;
#WARPS:;
#TIMESIGNATURES:0.000=4=4;
#TICKCOUNTS:0.000=4;
#COMBOS:0.000=1;
#SPEEDS:0.000=1.000=0.000=0;
#SCROLLS:0.000=1.000;
#FAKES:;
#LABELS:0.000=Song Start;
#BGCHANGES:;
#KEYSOUNDS:;
#ATTACKS:
;

//---------------dance-single - Basic----------------
#NOTEDATA:;
#CHARTNAME:Basic;
#STEPSTYPE:dance-single;
#DESCRIPTION:Basic;
#CHARTSTYLE:;
#DIFFICULTY:Easy;
#METER:4;
#RADARVALUES:0.210999,0.264840,0.000000,0.101862,0.000000,58.000000,58.000000,0.000000,4.000000,0.000000,0.000000,0.000000,0.000000,0.000000,0.210999,0.264840,0.000000,0.101862,0.000000,58.000000,58.000000,0.000000,4.000000,0.000000,0.000000,0.000000,0.000000,0.000000;
#CREDIT:Basic;
#NOTES:
// measure 0
1000
0000
0000
0001
,  // measure 1
0000
0000
0000
1000
,  // measure 2
0000
0000
0000
0001
,  // measure 3
0000
0000
0000
0100
,  // measure 4
0000
0000
1000
0001
,  // measure 5
0000
0000
0000
0010
,  // measure 6
0000
1000
1000
0002
,  // measure 7
0000
0000
0003
0200
,  // measure 8
0000
0300
1000
0020
,  // measure 9
0030
1000
0000
0010
,  // measure 10
0000
1000
0000
0100
,  // measure 11
0000
1000
0000
0100
,  // measure 12
0001
1000
0000
0100
,  // measure 13
0001
1000
0000
0010
,  // measure 14
0001
1000
0000
0100
,  // measure 15
1000
0100
0100
0000
,  // measure 16
1000
1000
0001
0100
,  // measure 17
0100
1000
0001
0000
,  // measure 18
1000
0000
0100
0000
,  // measure 19
0010
0010
0000
0001
,  // measure 20
1000
0000
0001
0100
,  // measure 21
1000
1000
0000
0100
,  // measure 22
0100
0100
0000
0001
,  // measure 23
0000
1000
0000
0010
,  // measure 24
1000
0000
0002
0000
,  // measure 25
0000
0000
0003
0000
,  // measure 26
0001
0000
0000
0000
;
