#VERSION:0.83;
#TITLE:Gravity Falls - Alternative Theme Music;
#SUBTITLE:;
#ARTIST:Disney;
#TITLETRANSLIT:;
#SUBTITLETRANSLIT:;
#ARTISTTRANSLIT:;
#GENRE:;
#ORIGIN:;
#CREDIT:Gorilla v1.1.3 (Dancing Monkeys v1.06);
#BANNER:;
#BACKGROUND:;
#PREVIEWVID:;
#JACKET:;
#CDIMAGE:;
#DISCIMAGE:;
#LYRICSPATH:;
#CDTITLE:;
#MUSIC:Gravity Falls - Alternative Theme Music.mp3;
#OFFSET:-0.539417;
#SAMPLESTART:42.546417;
#SAMPLELENGTH:12.000000;
#SELECTABLE:YES;
#BPMS:0.000=159.973;
#STOPS:;
#DELAYS:;
#WARPS:;
#TIMESIGNATURES:0.000=4=4;
#TICKCOUNTS:0.000=4;
#COMBOS:0.000=1;
#SPEEDS:0.000=1.000=0.000=0;
#SCROLLS:0.000=1.000;
#FAKES:;
#LABELS:0.000=Song Start;
#BGCHANGES:;
#KEYSOUNDS:;
#ATTACKS:
;

//---------------dance-single - Basic----------------
#NOTEDATA:;
#CHARTNAME:Basic;
#STEPSTYPE:dance-single;
#DESCRIPTION:Basic;
#CHARTSTYLE:;
#DIFFICULTY:Easy;
#METER:2;
#RADARVALUES:0.161827,0.184078,0.000000,0.015733,0.000000,72.000000,72.000000,0.000000,1.000000,0.000000,0.000000,0.000000,0.000000,0.000000,0.161827,0.184078,0.000000,0.015733,0.000000,72.000000,72.000000,0.000000,1.000000,0.000000,0.000000,0.000000,0.000000,0.000000;
#CREDIT:Basic;
#NOTES:
// measure 0
0000
0000
0000
0000
,  // measure 1
0000
0000
0000
1000
,  // measure 2
0000
0001
0000
0100
,  // measure 3
0000
0010
0000
0100
,  // measure 4
0000
0010
0000
0001
,  // measure 5
0000
0010
0000
1000
,  // measure 6
0000
0010
0000
0001
,  // measure 7
0000
0010
0000
0100
,  // measure 8
0000
1000
0000
0001
,  // measure 9
0000
0100
0000
0001
,  // measure 10
0000
1000
0000
0010
,  // measure 11
0000
0100
0000
1000
,  // measure 12
0000
0010
0000
0001
,  // measure 13
0000
0010
0000
0100
,  // measure 14
0000
1000
0000
0010
,  // measure 15
0000
0100
0000
0100
,  // measure 16
0000
1000
0000
0010
,  // measure 17
0000
1000
0000
0010
,  // measure 18
0000
0010
0000
1000
,  // measure 19
0000
0100
0000
0100
,  // measure 20
0000
0001
0000
1000
,  // measure 21
0000
0001
0000
0010
,  // measure 22
0000
0000
0000
1000
,  // measure 23
0000
0001
0000
1000
,  // measure 24
0000
0001
0000
0000
,  // measure 25
0010
0000
1000
0000
,  // measure 26
0000
0100
0000
1000
,  // measure 27
1000
1000
0000
1000
,  // measure 28
0000
0010
0000
0001
,  // measure 29
0000
0010
0000
1000
,  // measure 30
0000
0001
0000
0010
,  // measure 31
0000
0100
0000
1000
,  // measure 32
0000
0010
0000
1000
,  // measure 33
0000
0100
0000
0010
,  // measure 34
0000
0001
0000
0010
,  // measure 35
0000
1000
0000
0010
,  // measure 36
0000
1000
0000
0100
,  // measure 37
0000
0001
0000
2000
,  // measure 38
0000
0000
0000
0000
,  // measure 39
3000
0000
0000
0000
;

//---------------dance-single - Basic----------------
#NOTEDATA:;
#CHARTNAME:;
#STEPSTYPE:dance-single;
#DESCRIPTION:Basic;
#CHARTSTYLE:;
#DIFFICULTY:Medium;
#METER:2;
#RADARVALUES:0.267464,0.276117,0.000000,0.015733,0.000000,119.000000,119.000000,0.000000,1.000000,0.000000,0.000000,0.000000,0.000000,0.000000,0.267464,0.276117,0.000000,0.015733,0.000000,119.000000,119.000000,0.000000,1.000000,0.000000,0.000000,0.000000,0.000000,0.000000;
#CREDIT:;
#NOTES:
// measure 0
0000
0000
0000
0000
,  // measure 1
0000
0000
0000
1000
,  // measure 2
0000
0001
0000
0100
,  // measure 3
0000
0010
0000
0100
,  // measure 4
0000
0010
0000
0001
,  // measure 5
0000
0010
0000
1000
,  // measure 6
1000
0010
0010
0001
,  // measure 7
0001
0010
0010
0100
,  // measure 8
0100
1000
1000
0001
,  // measure 9
0001
0100
0100
0001
,  // measure 10
0001
1000
1000
0010
,  // measure 11
0010
0100
0100
1000
,  // measure 12
1000
0010
0000
0001
,  // measure 13
0001
0010
0010
0100
,  // measure 14
0010
1000
0100
0010
,  // measure 15
0001
0100
1000
0100
,  // measure 16
1000
1000
0010
0010
,  // measure 17
1000
1000
1000
0010
,  // measure 18
0010
0010
1000
1000
,  // measure 19
1000
0100
0100
0100
,  // measure 20
0001
0001
1000
1000
,  // measure 21
0001
0001
0000
0010
,  // measure 22
0000
0000
1000
1000
,  // measure 23
0000
0001
0000
1000
,  // measure 24
0000
0001
0000
0001
,  // measure 25
0000
0000
1000
0000
,  // measure 26
0000
0100
0000
1000
,  // measure 27
1000
1000
0000
1000
,  // measure 28
0000
0010
0000
0001
,  // measure 29
0000
0010
0000
1000
,  // measure 30
1000
0001
0001
0010
,  // measure 31
0010
0100
0100
1000
,  // measure 32
1000
0010
0010
1000
,  // measure 33
1000
0100
0100
0010
,  // measure 34
0010
0001
0001
0010
,  // measure 35
0010
1000
1000
0010
,  // measure 36
0010
1000
1000
0100
,  // measure 37
0100
0001
0001
2000
,  // measure 38
0000
0000
0000
0000
,  // measure 39
3000
0000
0000
0000
;
