#VERSION:0.83;
#TITLE:GO MONKEY GO;
#SUBTITLE:;
#ARTIST:Dancing Monkeys Project;
#TITLETRANSLIT:;
#SUBTITLETRANSLIT:;
#ARTISTTRANSLIT:;
#GENRE:;
#ORIGIN:;
#CREDIT:Gorilla v1.1.3 (Dancing Monkeys v1.06);
#BANNER:powerpuff-girls-mc-main1-210310.png;
#BACKGROUND:powerpuff-girls-mc-main1-210310 - Copy.png;
#PREVIEWVID:;
#JACKET:;
#CDIMAGE:;
#DISCIMAGE:;
#LYRICSPATH:;
#CDTITLE:;
#MUSIC:onlymp3.to - 02. Go Monkey Go Devo--vGDhHWI6PQ-192k-1696867426.mp3;
#OFFSET:-0.918458;
#SAMPLESTART:43.512207;
#SAMPLELENGTH:12.000000;
#SELECTABLE:YES;
#BPMS:0.000=140.866;
#STOPS:;
#DELAYS:;
#WARPS:;
#TIMESIGNATURES:0.000=4=4;
#TICKCOUNTS:0.000=4;
#COMBOS:0.000=1;
#SPEEDS:0.000=1.000=0.000=0;
#SCROLLS:0.000=1.000;
#FAKES:;
#LABELS:0.000=Song Start;
#BGCHANGES:;
#KEYSOUNDS:;
#ATTACKS:
;

//---------------dance-single - Basic----------------
#NOTEDATA:;
#CHARTNAME:Basic;
#STEPSTYPE:dance-single;
#DESCRIPTION:Basic;
#CHARTSTYLE:;
#DIFFICULTY:Easy;
#METER:5;
#RADARVALUES:0.083727,0.072271,0.000000,0.000000,0.000000,111.000000,111.000000,0.000000,0.000000,0.000000,0.000000,0.000000,0.000000,0.000000,0.083727,0.072271,0.000000,0.000000,0.000000,111.000000,111.000000,0.000000,0.000000,0.000000,0.000000,0.000000,0.000000,0.000000;
#CREDIT:Basic;
#NOTES:
// measure 0
1000
0000
0001
0000
,  // measure 1
0001
0000
1000
0000
,  // measure 2
0001
0000
1000
0000
,  // measure 3
0001
0000
0100
0000
,  // measure 4
1000
0000
0001
0000
,  // measure 5
1000
0000
1000
0000
,  // measure 6
0001
0000
0100
0000
,  // measure 7
1000
0000
1000
0000
,  // measure 8
0001
0000
0100
0000
,  // measure 9
1000
0000
0001
0000
,  // measure 10
1000
0000
0100
0000
,  // measure 11
0001
0000
0010
0000
,  // measure 12
1000
0000
0001
0000
,  // measure 13
1000
0000
0001
0000
,  // measure 14
1000
0000
0001
0000
,  // measure 15
1000
0000
0100
0000
,  // measure 16
1000
0000
0001
0000
,  // measure 17
1000
0000
0100
0000
,  // measure 18
1000
0000
1000
0000
,  // measure 19
0001
0000
0100
0000
,  // measure 20
0001
0000
0100
0000
,  // measure 21
0001
1000
0000
0100
,  // measure 22
0000
0010
0000
0001
,  // measure 23
0000
0010
0000
1000
,  // measure 24
0000
0100
0000
1000
,  // measure 25
0000
0100
0000
0001
,  // measure 26
0000
0010
0000
1000
,  // measure 27
0000
0010
0000
1000
,  // measure 28
0000
1000
0000
0100
,  // measure 29
0000
1000
0000
0100
,  // measure 30
0000
0010
0000
0010
,  // measure 31
0000
1000
0000
0010
,  // measure 32
0000
1000
0000
0100
,  // measure 33
0000
0010
0000
0100
,  // measure 34
0000
0100
0000
1000
,  // measure 35
0000
0010
0000
0010
,  // measure 36
0000
0100
0000
0100
,  // measure 37
0000
0010
0000
0100
,  // measure 38
0000
1000
0000
1000
,  // measure 39
0000
0010
0000
0100
,  // measure 40
0000
0010
0000
0100
,  // measure 41
0000
1000
0000
0100
,  // measure 42
0000
0010
0000
0100
,  // measure 43
0000
0001
0000
0100
,  // measure 44
0000
0010
0000
0010
,  // measure 45
0000
0010
0000
0100
,  // measure 46
0000
0010
0000
0100
,  // measure 47
0000
0100
0000
0100
,  // measure 48
0000
0100
0000
0001
,  // measure 49
0000
0010
0000
0100
,  // measure 50
0000
0001
0000
0100
,  // measure 51
0000
0001
0000
0100
,  // measure 52
0000
0100
0000
0001
,  // measure 53
0000
0010
0000
0100
,  // measure 54
0000
0010
0000
0100
;
