#VERSION:0.83;
#TITLE:Gives You Hell;
#SUBTITLE:;
#ARTIST:All Americans Rejects;
#TITLETRANSLIT:;
#SUBTITLETRANSLIT:;
#ARTISTTRANSLIT:;
#GENRE:;
#ORIGIN:;
#CREDIT:Fake Flake;
#BANNER:;
#BACKGROUND:;
#PREVIEWVID:;
#JACKET:;
#CDIMAGE:;
#DISCIMAGE:;
#LYRICSPATH:;
#CDTITLE:;
#MUSIC:Gives You Hell - All American Rejects [Lyrics].mp3;
#OFFSET:-0.054000;
#SAMPLESTART:69.944000;
#SAMPLELENGTH:24.577999;
#SELECTABLE:YES;
#BPMS:0.000=200.000;
#STOPS:;
#DELAYS:;
#WARPS:;
#TIMESIGNATURES:0.000=4=4;
#TICKCOUNTS:0.000=4;
#COMBOS:0.000=1;
#SPEEDS:0.000=1.000=0.000=0;
#SCROLLS:0.000=0.700;
#FAKES:;
#LABELS:0.000=Song Start;
#BGCHANGES:;
#KEYSOUNDS:;
#ATTACKS:
;

//---------------dance-single - Fake Flake----------------
#NOTEDATA:;
#CHARTNAME:Fake Flake;
#STEPSTYPE:dance-single;
#DESCRIPTION:Fake Flake;
#CHARTSTYLE:;
#DIFFICULTY:Medium;
#METER:8;
#RADARVALUES:0.336940,0.693507,0.004689,0.079713,0.000000,503.000000,502.000000,1.000000,17.000000,0.000000,0.000000,0.000000,0.000000,0.000000,0.336940,0.693507,0.004689,0.079713,0.000000,503.000000,502.000000,1.000000,17.000000,0.000000,0.000000,0.000000,0.000000,0.000000;
#CREDIT:Fake Flake;
#NOTES:
0000
0000
0000
1000
,
0000
0000
0000
0010
,
0000
0000
0000
0100
,
0000
0000
0000
0001
,
0000
1100
0000
0001
,
0000
0100
0010
1000
,
0000
0001
0000
0010
,
0000
0100
1000
0001
,
0000
0100
0000
0001
,
0000
0100
0010
1000
,
0000
0001
0000
0100
,
0000
0010
1000
0100
,
0000
0010
0001
0000
,
0100
0010
1000
0000
,
0001
0000
0010
0000
,
0100
1000
0001
0000
,
0100
0000
0001
0000
,
0100
0010
1000
0000
,
0001
0000
0100
0000
,
0010
1000
0100
0000
,
0010
0001
0000
0100
,
0010
1000
0000
0001
,
0000
0010
0000
0100
,
1000
0001
0000
0100
,
0000
0001
0000
0100
,
0010
1000
0000
0001
,
0000
0100
0000
0010
,
1000
0100
0000
0010
,
0001
0000
0100
0010
,
1000
0000
0001
0000
,
0010
0000
0100
1000
,
0000
0001
0100
0001
,
0000
1000
0100
0010
,
0000
0001
1000
0000
,
0100
0000
0010
1000
,
0001
0000
0100
0010
,
0001
1000
0001
0100
,
0000
0010
0000
1000
,
0000
0100
0000
0010
,
0000
0001
0100
0000
,
0010
1000
0001
0000
0000
0000
1000
0000
,
0000
0100
0000
0010
,
0000
0001
0000
1000
,
0000
0000
0010
0000
1000
0100
0010
0001
,
0010
0100
2000
0000
0000
0000
3001
0000
,
0000
0010
0000
0100
,
0000
1000
0000
0010
,
0000
0100
0000
0001
,
1000
0010
0000
0100
,
0000
0001
0000
1000
,
0000
0100
0000
0010
,
0001
0000
0100
0000
0010
1000
0001
0010
,
0100
1000
0000
0000
,
0010
0000
0100
0000
,
0000
0000
1000
0000
,
0000
0001
0010
0100
,
0000
1000
0000
0010
,
0000
0000
0100
0000
,
0000
0000
0001
0000
0000
0000
1000
0100
,
0010
0001
0010
0100
1000
0100
0010
0001
,
0010
0100
1000
0000
0010
0000
0100
0000
,
0000
0001
0010
0100
,
0000
1000
0001
0100
,
0000
0010
1000
0100
,
0000
0010
0001
0100
,
0000
0010
1000
0001
,
0000
0100
0010
1000
,
0000
0001
0010
0100
,
0000
1000
0100
0010
,
0000
0001
0100
0010
,
0000
1000
0100
0010
,
0000
0001
0100
0010
,
0000
1000
0100
0010
,
0000
0001
0100
0010
,
0000
1000
0100
0010
,
0000
0001
0100
0010
,
0000
1000
0100
0010
,
0001
0010
0100
1000
,
0100
0020
0000
0000
,
0000
0100
0001
0000
,
0000
0030
0100
0010
,
0001
0010
0100
1000
,
0100
0020
0000
0000
,
0000
0000
0100
0030
0001
0000
1000
0000
,
0010
0100
0001
0000
0000
0000
1000
0000
,
0000
0100
0000
0010
,
0000
0001
0000
0100
,
0000
0010
0000
1000
,
0000
0001
0000
0010
,
0100
1000
0000
0100
,
0000
0010
0000
0001
,
0100
0000
0010
0000
1000
0001
1000
0010
,
0100
0001
0000
0000
,
0010
0000
0100
1000
,
0000
0100
0001
0000
,
0000
1000
0010
0100
,
0000
0001
0000
0010
,
0000
0000
0100
0000
,
0000
0000
1000
0000
0000
0000
0001
0100
,
0010
1000
0010
0100
0001
0100
0010
1000
,
0010
0100
0001
0000
0010
0000
0100
0000
,
0000
1000
0010
0100
,
0000
0001
1000
0100
,
0000
0010
0001
0100
,
0000
0010
1000
0100
,
0000
0010
0001
1000
,
0000
0100
0010
0001
,
0000
1000
0010
0100
,
0000
0001
0100
0010
,
0000
1000
0100
0010
,
0000
0001
0100
0010
,
0000
1000
0100
0010
,
0000
0001
0100
0010
,
0000
1000
0100
0010
,
0000
0001
0100
0010
,
0000
1000
0100
0020
,
0000
0030
0001
0000
,
0000
0000
0000
1000
,
0000
0000
0000
0100
,
0000
0000
0000
0010
,
0000
0000
0000
0001
,
0000
0000
0000
0100
,
0000
0000
0000
0010
,
0000
0000
0000
1000
,
0000
0000
0001
0010
0100
1000
0100
0010
,
0001
0010
0100
1000
0100
0010
0001
0010
,
0100
1000
0100
0010
0001
0010
0100
1000
,
0100
0010
0001
0010
0100
1000
0100
0010
,
0001
0010
0100
1000
0100
0010
0001
0010
,
0100
1000
0100
0010
0001
0010
0100
1000
,
0100
0010
0001
0000
0000
0000
0100
0000
,
0000
0010
1000
0001
,
0000
0010
0000
0100
,
0000
1000
0001
0100
,
0010
1000
0000
0002
,
0000
0013
0100
2000
,
0000
3100
0000
0020
,
0000
0031
0100
0010
,
0000
1000
0000
0002
,
0000
0013
0100
2000
,
0000
3010
0000
0200
,
0000
0000
0301
0000
1000
0100
0010
0000
,
0001
0100
0000
0020
,
0000
1030
0001
0020
,
0000
0130
0000
2000
,
0000
3001
1000
0100
,
0010
0001
0000
0100
,
0000
0010
1000
0002
,
0000
0023
0000
0230
,
0000
1300
0010
0100
,
0001
1000
0010
0100
,
0000
0001
0010
0100
,
0000
1000
0001
0100
,
0000
0010
1000
0100
,
0000
0010
0001
0100
,
0000
0010
1000
0001
,
0000
0100
0010
1000
,
0000
0001
0010
0100
,
0000
1000
0100
0010
,
0000
0001
0100
0010
,
0000
1000
0100
0010
,
0000
0001
0100
0010
,
0000
1000
0100
0010
,
0000
0001
0100
0010
,
0000
1000
0100
0010
,
0000
0001
0100
0010
,
0100
0010
1000
0000
,
1000
0010
0100
0000
,
0001
1000
0100
0000
,
0010
0001
0100
0000
,
0010
1000
0100
0000
,
0010
0001
1000
0000
,
0200
0000
0000
0000
,
0000
0000
0000
0000
,
0300
0000
0000
0000
;

//---------------dance-single - Fake Flake----------------
#NOTEDATA:;
#CHARTNAME:;
#STEPSTYPE:dance-single;
#DESCRIPTION:Fake Flake;
#CHARTSTYLE:;
#DIFFICULTY:Easy;
#METER:8;
#RADARVALUES:0.089761,0.107261,0.000000,0.018756,0.000000,134.000000,134.000000,0.000000,4.000000,0.000000,0.000000,0.000000,0.000000,0.000000,0.089761,0.107261,0.000000,0.018756,0.000000,134.000000,134.000000,0.000000,4.000000,0.000000,0.000000,0.000000,0.000000,0.000000;
#CREDIT:;
#NOTES:
0000
0000
0000
1000
,
0000
0000
0000
0010
,
0000
0000
0000
0100
,
0000
0000
0000
0001
,
0000
1000
0000
0001
,
0000
0100
0000
1000
,
0000
0001
0000
0010
,
0000
0100
0000
0001
,
0000
0100
0000
0001
,
0000
0100
0000
1000
,
0000
0001
0000
0100
,
0000
0010
0000
0100
,
0000
0010
0000
0010
,
0000
1000
1000
0000
,
0001
0001
0000
0100
,
0000
1000
0000
0100
,
0000
0001
0000
0010
,
0000
1000
0000
0010
,
0000
1000
0000
0100
,
0000
0010
0000
1000
,
0000
0100
0000
0010
,
0000
1000
0000
0001
,
0000
0010
0000
0100
,
0000
0001
0000
0100
,
0000
0001
0000
0100
,
0000
1000
0000
0001
,
0000
0100
0000
0010
,
0000
0100
0000
0010
,
0000
0100
0000
0010
,
0000
0100
0000
0001
,
0000
0100
0000
0000
,
0001
0001
0000
0001
,
0000
1000
0000
0010
,
0000
0001
0000
0200
,
0000
0000
0000
0000
,
0000
0300
0000
0000
,
0000
0010
0000
0000
,
0010
0010
0000
1000
,
0000
0100
0000
0010
,
0000
0001
0001
0000
,
0000
0000
1000
1000
,
0000
0100
0000
0010
,
0000
0001
0000
1000
,
0000
0010
0000
0010
,
0000
2000
0000
0000
,
3000
0010
0000
0100
,
0000
1000
0000
0010
,
0000
0100
0000
0001
,
0000
0010
0000
0100
,
0000
0001
0000
1000
,
0000
0100
0000
0010
,
0000
0100
0000
0001
,
0000
2000
0000
0000
,
0000
0000
0000
0000
,
0000
0000
0000
0000
,
0000
0000
0000
3000
,
0000
0002
0000
0000
,
0000
0000
0000
0000
,
0000
0003
0000
0001
,
0001
0001
0000
0000
,
0000
1000
0000
0100
,
0000
0001
0000
0100
,
0000
1000
0000
0100
,
0000
0010
0000
0100
,
0000
0010
0000
0100
,
0000
0010
0000
0001
,
0000
0100
0000
1000
,
0000
0001
0000
0100
,
0000
1000
0000
0010
,
0000
0001
0000
0010
,
0000
1000
0000
0010
,
0000
0001
0000
0010
,
0000
1000
0000
0010
,
0000
0001
0000
0010
,
0000
1000
0000
0010
,
0000
0001
0000
0010
,
0000
1000
0000
0000
;
