#VERSION:0.83;
#TITLE:onlymp3.to - Sean Paul Gimme The Light Official Video -8MmW_GOFS8I-192k-1696853172;
#SUBTITLE:;
#ARTIST:Dancing Monkeys Project;
#TITLETRANSLIT:;
#SUBTITLETRANSLIT:;
#ARTISTTRANSLIT:;
#GENRE:;
#ORIGIN:;
#CREDIT:Gorilla v1.1.3 (Dancing Monkeys v1.06);
#BANNER:;
#BACKGROUND:;
#PREVIEWVID:;
#JACKET:;
#CDIMAGE:;
#DISCIMAGE:;
#LYRICSPATH:;
#CDTITLE:;
#MUSIC:onlymp3.to - Sean Paul Gimme The Light Official Video -8MmW_GOFS8I-192k-1696853172.mp3;
#OFFSET:-1.080667;
#SAMPLESTART:59.286003;
#SAMPLELENGTH:12.000000;
#SELECTABLE:YES;
#BPMS:0.000=107.207;
#STOPS:11.000=2.239;
#DELAYS:;
#WARPS:;
#TIMESIGNATURES:0.000=4=4;
#TICKCOUNTS:0.000=4;
#COMBOS:0.000=1;
#SPEEDS:0.000=1.000=0.000=0;
#SCROLLS:0.000=1.000;
#FAKES:;
#LABELS:0.000=Song Start;
#BGCHANGES:;
#KEYSOUNDS:;
#ATTACKS:
;

//---------------dance-single - Basic----------------
#NOTEDATA:;
#CHARTNAME:Basic;
#STEPSTYPE:dance-single;
#DESCRIPTION:Basic;
#CHARTSTYLE:;
#DIFFICULTY:Easy;
#METER:6;
#RADARVALUES:0.338518,0.345808,0.076132,0.009517,0.000000,249.000000,241.000000,8.000000,1.000000,0.000000,0.000000,0.000000,0.000000,0.000000,0.338518,0.345808,0.076132,0.009517,0.000000,249.000000,241.000000,8.000000,1.000000,0.000000,0.000000,0.000000,0.000000,0.000000;
#CREDIT:Basic;
#NOTES:
0000
2000
0000
3000
,
0000
0000
0001
1000
,
0000
0000
0001
1000
,
0000
0001
0001
0000
0100
0000
0010
0010
,
0000
0000
0001
1000
,
0001
0001
0001
0000
0100
0000
0010
0010
,
0000
0000
1000
0100
0100
0000
0010
0010
,
0001
0001
0010
0010
0100
0000
0100
0100
,
0001
0001
0100
0100
0001
0001
0100
0100
,
0001
0001
0010
0010
0001
0001
0010
0010
,
1000
1000
0010
0010
1000
1000
0010
0010
,
0100
1000
0001
0100
0010
1000
0100
0010
,
0001
0000
0010
0001
0000
0000
0011
0000
,
0000
1000
0001
0100
0010
0000
0100
0010
,
0001
0000
0010
1000
0010
0000
0110
0000
,
0000
1000
0001
0000
0010
1000
0100
0000
,
0001
0000
0010
0001
0000
0000
1001
0000
,
0000
1000
0001
0100
0010
1000
0100
0010
,
0001
0100
0010
1000
0010
0000
0110
0000
,
0000
1000
0001
0100
0010
1000
0100
0010
,
0001
1000
0010
1000
0000
0000
0010
0000
,
0001
1000
0010
1000
0000
0000
1010
0000
,
0001
0100
0010
1000
0010
0000
0110
0000
,
0001
1000
0010
1000
0000
0000
1010
0000
,
1000
0001
0010
0001
0000
0000
0010
0000
,
0001
1000
0010
1000
0000
0000
0010
0000
,
0001
0100
0010
1000
0010
0000
0100
0000
,
0000
1000
0001
0100
0010
1000
0100
0010
,
0000
1000
0001
0010
0100
1000
0010
0100
,
0000
1000
0001
0100
0010
1000
0100
0010
,
0001
0100
0010
1000
0010
0000
0100
0000
,
0000
1000
0001
0100
0010
1000
0100
0010
,
0000
0001
1000
0100
0010
0001
0100
0010
,
0000
0001
1000
0100
0010
0001
0100
0010
,
1000
0010
1000
0010
0100
0001
0010
0000
,
0000
1000
0001
0100
0010
1000
0100
0010
,
0001
0000
0010
0001
0000
0000
0010
0000
,
0001
1000
0010
1000
0000
0000
0010
0000
,
0001
0100
0010
1000
0010
0000
0100
0000
,
0001
1000
0010
1000
0000
0000
0010
0000
,
1000
0001
0100
0001
0000
0000
0101
0000
,
0001
1000
0010
1000
0000
0000
0010
0000
,
1000
0001
0100
0001
1000
0000
0010
0000
;
