#VERSION:0.83;
#TITLE:onlymp3.to - GENERATOR REX Theme Revolution Extended HD -1WBQCmHzP4M-192k-1708063477;
#SUBTITLE:;
#ARTIST:Dancing Monkeys Project;
#TITLETRANSLIT:;
#SUBTITLETRANSLIT:;
#ARTISTTRANSLIT:;
#GENRE:;
#ORIGIN:;
#CREDIT:Gorilla v1.1.3 (Dancing Monkeys v1.06);
#BANNER:generation-rex-rev-6973b241e1224e04a51b440aea179cff.png;
#BACKGROUND:generator-rex.png;
#PREVIEWVID:;
#JACKET:;
#CDIMAGE:;
#DISCIMAGE:;
#LYRICSPATH:;
#CDTITLE:;
#MUSIC:onlymp3.to - GENERATOR REX Theme Revolution Extended HD -1WBQCmHzP4M-192k-1708063477.mp3;
#OFFSET:-0.319437;
#SAMPLESTART:33.288185;
#SAMPLELENGTH:12.000000;
#SELECTABLE:YES;
#BPMS:0.000=181.991;
#STOPS:;
#DELAYS:;
#WARPS:;
#TIMESIGNATURES:0.000=4=4;
#TICKCOUNTS:0.000=4;
#COMBOS:0.000=1;
#SPEEDS:0.000=1.000=0.000=0;
#SCROLLS:0.000=1.000;
#FAKES:;
#LABELS:0.000=Song Start;
#BGCHANGES:;
#KEYSOUNDS:;
#ATTACKS:
;

//---------------dance-single - Basic----------------
#NOTEDATA:;
#CHARTNAME:Basic;
#STEPSTYPE:dance-single;
#DESCRIPTION:Basic;
#CHARTSTYLE:;
#DIFFICULTY:Easy;
#METER:5;
#RADARVALUES:0.290563,0.363453,0.013979,0.034947,0.000000,291.000000,289.000000,2.000000,5.000000,0.000000,0.000000,0.000000,0.000000,0.000000,0.290563,0.363453,0.013979,0.034947,0.000000,291.000000,289.000000,2.000000,5.000000,0.000000,0.000000,0.000000,0.000000,0.000000;
#CREDIT:Basic;
#NOTES:
// measure 0
0000
0000
0000
1001
,  // measure 1
1000
0010
1000
0010
,  // measure 2
1000
0001
0100
0010
,  // measure 3
1000
1000
0001
1000
,  // measure 4
0010
0001
0100
0001
,  // measure 5
1000
0010
0001
0100
,  // measure 6
1000
0001
1000
0010
,  // measure 7
0010
0100
0001
1000
,  // measure 8
0001
0010
1000
0010
,  // measure 9
1000
0010
0001
0000
,  // measure 10
1000
0000
0010
1000
,  // measure 11
0001
0000
1000
0000
,  // measure 12
1000
0000
0100
0100
,  // measure 13
1000
0000
0001
0000
,  // measure 14
1000
0000
0010
1000
,  // measure 15
0001
0000
0010
0100
,  // measure 16
0001
0000
1000
0010
,  // measure 17
0001
0000
0010
0100
,  // measure 18
1000
0010
2000
0000
,  // measure 19
0000
3000
0001
2000
,  // measure 20
0000
3000
0001
0001
,  // measure 21
2000
3000
0010
1000
,  // measure 22
1000
0010
0010
1000
,  // measure 23
1000
0010
0001
1000
,  // measure 24
1000
0200
0000
0300
,  // measure 25
1000
0000
0001
0000
,  // measure 26
1000
0000
0010
1000
,  // measure 27
1000
0010
0001
0000
,  // measure 28
1000
0100
0000
0010
,  // measure 29
1000
0010
0001
0000
,  // measure 30
0001
0000
0010
0001
,  // measure 31
1000
0010
0001
0000
,  // measure 32
1000
0000
0100
0100
,  // measure 33
1000
0010
0001
0000
,  // measure 34
0001
0000
0010
0001
,  // measure 35
1000
0010
0001
0000
,  // measure 36
1000
0010
1000
0010
,  // measure 37
0000
1001
0001
1000
,  // measure 38
0100
0001
0100
0000
,  // measure 39
0000
0000
0001
1000
,  // measure 40
0010
0001
0100
0000
,  // measure 41
0000
0000
0001
1000
,  // measure 42
0010
0001
0100
0000
,  // measure 43
0000
0000
0001
1000
,  // measure 44
0010
0001
0100
0000
,  // measure 45
1000
0000
0001
0000
,  // measure 46
1000
0000
0010
1000
,  // measure 47
0001
0000
0010
0100
,  // measure 48
0001
0000
1000
0010
,  // measure 49
1000
0000
0001
0000
,  // measure 50
1000
0000
0010
1000
,  // measure 51
0001
0100
0000
0001
,  // measure 52
1000
0100
0000
0010
,  // measure 53
1000
0000
0100
0100
,  // measure 54
0001
0000
0010
0001
,  // measure 55
1000
0010
0001
0000
,  // measure 56
0100
0001
0000
1000
,  // measure 57
1000
0010
1000
0000
,  // measure 58
0001
0000
0010
0001
,  // measure 59
1000
0010
0001
0000
,  // measure 60
0100
0001
0000
1000
,  // measure 61
0000
0000
0001
1000
,  // measure 62
0010
1000
0000
0010
,  // measure 63
0000
0000
0001
1000
,  // measure 64
0100
0001
0000
1000
,  // measure 65
0000
0000
0001
1000
,  // measure 66
0010
0001
0100
0000
,  // measure 67
0000
0000
0001
1000
,  // measure 68
0010
0001
0100
0000
,  // measure 69
1000
1000
0010
0000
,  // measure 70
0000
1000
0001
0000
,  // measure 71
0000
0000
0001
1000
,  // measure 72
1000
0010
1000
0000
,  // measure 73
0000
0000
0001
1000
,  // measure 74
1000
0010
1000
0000
,  // measure 75
1000
0000
0000
0010
,  // measure 76
0000
1000
0001
1000
,  // measure 77
1000
0010
0001
0000
,  // measure 78
1000
0001
0100
0000
,  // measure 79
0000
0000
0001
0010
,  // measure 80
1000
0001
0100
0000
,  // measure 81
0000
0000
0001
1000
,  // measure 82
0010
0001
0100
0000
,  // measure 83
0000
1000
0001
1000
,  // measure 84
0001
0000
0000
0100
,  // measure 85
1000
0000
0100
0100
,  // measure 86
0010
0001
0100
0000
,  // measure 87
0000
0000
0001
1000
,  // measure 88
0100
0001
0000
1000
,  // measure 89
0000
0000
0001
1000
,  // measure 90
0010
0001
0100
0000
,  // measure 91
0000
0001
0000
1000
,  // measure 92
0001
0100
0000
0001
,  // measure 93
0001
0010
0000
0001
,  // measure 94
1000
0001
0100
0000
,  // measure 95
0000
0001
0000
1000
,  // measure 96
0010
0001
0100
0000
,  // measure 97
0000
0001
0000
1000
,  // measure 98
1000
0001
0100
0000
,  // measure 99
0000
0001
0000
1000
,  // measure 100
0000
1000
0020
0000
,  // measure 101
0000
1000
0030
0000
,  // measure 102
0000
1000
0100
0000
,  // measure 103
0001
0000
1000
0000
,  // measure 104
1000
0000
0000
0000
;

//---------------dance-single - Standard----------------
#NOTEDATA:;
#CHARTNAME:Standard;
#STEPSTYPE:dance-single;
#DESCRIPTION:Standard;
#CHARTSTYLE:;
#DIFFICULTY:Medium;
#METER:6;
#RADARVALUES:0.363453,0.436144,0.258611,0.006989,0.000000,364.000000,327.000000,37.000000,1.000000,0.000000,0.000000,0.000000,0.000000,0.000000,0.363453,0.436144,0.258611,0.006989,0.000000,364.000000,327.000000,37.000000,1.000000,0.000000,0.000000,0.000000,0.000000,0.000000;
#CREDIT:Standard;
#NOTES:
0000
0000
0000
0000
0000
0000
1001
0000
,
0110
0000
1000
0000
0100
0000
1000
0000
,
0101
0000
0001
0000
0010
0000
0100
0000
,
0001
0000
0000
0000
0010
0000
0100
0000
,
0101
0000
0001
0000
0010
0000
0100
0000
,
1000
0000
0000
0000
0001
0000
0100
0000
,
1100
0000
1000
0000
0001
0000
0000
0000
,
0000
0000
0000
0000
0001
0000
1000
0000
,
1000
0000
0000
0000
0001
0000
1000
0000
,
1000
0000
0100
0000
1000
0000
0000
0000
,
1000
0000
0000
0000
0001
0000
0100
0000
,
0110
0000
0000
0000
0001
0000
0100
0000
,
1100
0000
0000
0000
0001
0000
0001
0000
,
1000
0000
0000
0000
0001
0000
0100
0000
,
1000
0000
0000
0000
0001
0000
0100
0000
,
0011
0000
0000
0000
1000
0000
0001
0000
,
1000
0000
0000
0000
0001
0000
1000
0000
,
0011
0000
0000
0000
1000
0000
0001
0000
,
1000
0000
0010
0000
1000
0000
0000
0000
,
0001
0000
0000
0000
0010
0000
0100
0000
,
0000
0000
0001
0000
1000
0000
1000
0000
,
0000
0000
1000
0000
0001
0000
0100
0000
,
1000
0000
0000
0000
0001
0000
0100
0000
,
1000
0000
0100
0000
1000
0000
0000
0000
,
1100
0000
0000
0000
0001
0000
0001
0000
,
1000
0000
0000
0000
0001
0000
0100
0000
,
1000
0000
0000
0000
0001
0000
0100
0000
,
1000
0000
0100
0000
1000
0000
0000
0000
,
1000
0000
0100
0000
0000
0000
0010
0000
,
1000
0000
0100
0000
1000
0000
0000
0000
,
1000
0000
0000
0000
0010
0000
0100
0000
,
1000
0000
0100
0000
1000
0000
0000
0000
,
1100
0000
0000
0000
0001
0000
0001
0000
,
1000
0000
0100
0000
1000
0000
0000
0000
,
1000
0000
0000
0000
0010
0000
0100
0000
,
1000
0000
0100
0000
1000
0000
0000
0000
,
0110
0000
1000
0000
0100
0000
1000
0000
,
0001
0000
0000
0000
0010
0000
0100
0000
,
0101
0000
0001
0000
0010
0000
0100
0000
,
0001
0000
0000
0000
0010
0000
0100
0000
,
0101
0000
0001
0000
0010
0000
0100
0000
,
0001
0000
0000
0000
0010
0000
0100
0000
,
0101
0000
0001
0000
0010
0000
0100
0000
,
0001
0000
0000
0000
0010
0000
0100
0000
,
0101
0000
0001
0000
0010
0000
0100
0000
,
1000
0000
0000
0000
0001
0000
0100
0000
,
1000
0000
0000
0000
0001
0000
0100
0000
,
0011
0000
0000
0000
1000
0000
0001
0000
,
1000
0000
0000
0000
0001
0000
1000
0000
,
1000
0000
0000
0000
0001
0000
0100
0000
,
1000
0000
0000
0000
0001
0000
0100
0000
,
1000
0000
0010
0000
0000
0000
1000
0000
,
1000
0000
0100
0000
0000
0000
0010
0000
,
1100
0000
0000
0000
0001
0000
0001
0000
,
1000
0000
0000
0000
0010
0000
0100
0000
,
1000
0000
0100
0000
1000
0000
0000
0000
,
0101
0000
0001
0000
0001
0000
1000
0000
,
1000
0000
0010
0000
1000
0000
0000
0000
,
1000
0000
0000
0000
0010
0000
0100
0000
,
1000
0000
0100
0000
1000
0000
0000
0000
,
0101
0000
0001
0000
0001
0000
1000
0000
,
0001
0000
0000
0000
0010
0000
0100
0000
,
1100
0000
0001
0000
1000
0000
0100
0000
,
0001
0000
0000
0000
0010
0000
0100
0000
,
0101
0000
0001
0000
0001
0000
1000
0000
,
0001
0000
0000
0000
0010
0000
0100
0000
,
0101
0000
0001
0000
0010
0000
0100
0000
,
0001
0000
0000
0000
0010
0000
0100
0000
,
0101
0000
0001
0000
0010
0000
0100
0000
,
1100
0000
0001
0000
1000
0000
0000
0000
,
0001
0000
0100
0000
0010
0000
0000
0000
,
0000
0000
0000
0000
0001
0000
1000
0000
,
1000
0000
0010
0000
1000
0000
0000
0000
,
0000
0000
0000
0000
0001
0000
1000
0000
,
1000
0000
0010
0000
1000
0000
0000
0000
,
1000
0000
0100
0000
0000
0000
0010
0000
,
0000
0000
0001
0000
0100
0000
0010
0000
,
1000
0000
0100
0000
1000
0000
0000
0000
,
0101
0000
0001
0000
0010
0000
0100
0000
,
0001
0000
0000
0000
0100
0000
0001
0000
,
0101
0000
0001
0000
0010
0000
0100
0000
,
0001
0000
0000
0000
0010
0000
0100
0000
,
0101
0000
0001
0000
0010
0000
0100
0000
,
0000
0000
0001
0000
0100
0000
0010
0000
,
1000
0000
0000
0000
0000
0000
1010
0000
,
1100
0000
0000
0000
0001
0000
0001
0000
,
0101
0000
0001
0000
0010
0000
0100
0000
,
0001
0000
0000
0000
0010
0000
0100
0000
,
0101
0000
0001
0000
0001
0000
1000
0000
,
0001
0000
0000
0000
0010
0000
0100
0000
,
0101
0000
0001
0000
0010
0000
0100
0000
,
0000
0000
1000
0000
0100
0000
1000
0000
,
1000
0000
0010
0000
0000
0000
1000
0000
,
0001
0000
0100
0000
0000
0000
0001
0000
,
0101
0000
0001
0000
0010
0000
0100
0000
,
0000
0000
1000
0000
0100
0000
1000
0000
,
0101
0000
0001
0000
0010
0000
0100
0000
,
0000
0000
1000
0000
0100
0000
1000
0000
,
0101
0000
0001
0000
0010
0000
0100
0000
,
0000
0000
1000
0000
0100
0000
1000
0000
,
0001
0000
0100
0000
0020
0000
0000
0000
,
0000
0000
0001
0000
0030
0000
0000
0000
,
0000
0000
0001
0000
1010
0000
1000
0000
,
0001
0000
0000
0000
0100
0000
0000
0000
,
1000
0000
0000
0000
0000
0000
0000
0000
,
;

//---------------dance-single - Heavy----------------
#NOTEDATA:;
#CHARTNAME:Heavy;
#STEPSTYPE:dance-single;
#DESCRIPTION:Heavy;
#CHARTSTYLE:;
#DIFFICULTY:Hard;
#METER:7;
#RADARVALUES:0.414377,0.436144,0.356464,0.000000,0.000000,415.000000,364.000000,51.000000,0.000000,0.000000,0.000000,0.000000,0.000000,0.000000,0.414377,0.436144,0.356464,0.000000,0.000000,415.000000,364.000000,51.000000,0.000000,0.000000,0.000000,0.000000,0.000000,0.000000;
#CREDIT:Heavy;
#NOTES:
0000
0000
0000
0000
0000
0000
0011
0000
,
1010
0000
1000
0000
0001
0000
1000
0000
,
1100
0000
1000
0000
0001
0000
1000
0000
,
0001
0000
0000
0000
0100
0000
0001
0000
,
1100
0000
1000
0000
0001
0000
1000
0000
,
0001
0000
0000
0000
0010
0000
0100
0000
,
0011
0000
0001
0000
0100
0000
0001
0000
,
0000
1000
0000
0000
0100
0000
0010
0000
,
1000
0000
0001
0000
0100
0000
0001
0000
,
0101
0000
0001
0000
1000
0000
0001
0000
,
1000
0000
0000
0000
0100
0000
1000
0000
,
0110
0000
0000
0000
1000
0000
0010
0000
,
0011
0000
0001
0000
0100
0000
0100
0000
,
0001
0000
0000
0000
0010
0000
0100
0000
,
1000
0000
0000
0000
0100
0000
1000
0000
,
1001
0000
0000
0000
0001
0000
1000
0000
,
1000
0000
0001
0000
0100
0000
0001
0000
,
1001
0000
0000
0000
0001
0000
1000
0000
,
0001
0000
1000
0000
0010
0000
0100
0000
,
0001
0000
0000
0000
0100
0000
0001
0000
,
0000
0000
0001
0000
0010
0000
0010
0000
,
0001
0000
0100
0000
0001
0000
0010
0000
,
1000
0000
0000
0000
0100
0000
1000
0000
,
0101
0000
0001
0000
1000
0000
0001
0000
,
0011
0000
0001
0000
0100
0000
0100
0000
,
0001
0000
0000
0000
0010
0000
0100
0000
,
1000
0000
0000
0000
0100
0000
1000
0000
,
0101
0000
0001
0000
1000
0000
0001
0000
,
0001
0000
0100
0000
0010
0000
1000
0000
,
0101
0000
0001
0000
1000
0000
0001
0000
,
0101
0000
1000
0000
0001
0000
0010
0000
,
0101
0000
0001
0000
1000
0000
0001
0000
,
0011
0000
0001
0000
0100
0000
0100
0000
,
0101
0000
0001
0000
1000
0000
0001
0000
,
0101
0000
1000
0000
0001
0000
0010
0000
,
0101
0000
0001
0000
1000
0000
0001
0000
,
1010
0000
1000
0000
0001
0000
1000
0000
,
0001
0000
0000
0000
0100
0000
0001
0000
,
1100
0000
1000
0000
0001
0000
1000
0000
,
0001
0000
0000
0000
0100
0000
0001
0000
,
1100
0000
1000
0000
0001
0000
1000
0000
,
0001
0000
0000
0000
0100
0000
0001
0000
,
1100
0000
1000
0000
0001
0000
1000
0000
,
0001
0000
0000
0000
0100
0000
0001
0000
,
1100
0000
1000
0000
0001
0000
1000
0000
,
0001
0000
0000
0000
0010
0000
0100
0000
,
1000
0000
0000
0000
0100
0000
1000
0000
,
1001
0000
0000
0000
0001
0000
1000
0000
,
1000
0000
0001
0000
0100
0000
0001
0000
,
0001
0000
0000
0000
0010
0000
0100
0000
,
1000
0000
0000
0000
0100
0000
1000
0000
,
0001
0000
0010
0000
0001
0000
1000
0000
,
0001
0000
0100
0000
0010
0000
1000
0000
,
0011
0000
0001
0000
0100
0000
0100
0000
,
0101
0000
1000
0000
0001
0000
0010
0000
,
0101
0000
0001
0000
1000
0000
0001
0000
,
1010
0000
1000
0000
1000
0000
0001
0000
,
0001
0000
1000
0000
0010
0000
0100
0000
,
0101
0000
1000
0000
0001
0000
0010
0000
,
0101
0000
0001
0000
1000
0000
0001
0000
,
1010
0000
1000
0000
1000
0000
0001
0000
,
0001
0000
0000
0000
0100
0000
0001
0000
,
1010
0000
0001
0000
0100
0000
0001
0000
,
0001
0000
0000
0000
0100
0000
0001
0000
,
1010
0000
1000
0000
1000
0000
0001
0000
,
0001
0000
0000
0000
0100
0000
0001
0000
,
1100
0000
1000
0000
0001
0000
1000
0000
,
0001
0000
0000
0000
0100
0000
0001
0000
,
1100
0000
1000
0000
0001
0000
1000
0000
,
1001
0000
1000
0000
0001
0000
0000
0000
,
1000
0000
0100
0000
1000
0000
0000
0000
,
0000
1000
0000
0000
0100
0000
0010
0000
,
0001
0000
1000
0000
0010
0000
0100
0000
,
0000
1000
0000
0000
0100
0000
0010
0000
,
0001
0000
1000
0000
0010
0000
0100
0000
,
1000
0000
0010
0000
0000
0000
0100
0000
,
0000
1000
0001
0000
0100
0000
0001
0000
,
0101
0000
0001
0000
1000
0000
0001
0000
,
1100
0000
1000
0000
0001
0000
1000
0000
,
0000
0000
0000
0000
1000
1000
0001
0000
,
1100
0000
1000
0000
0001
0000
1000
0000
,
0001
0000
0000
0000
0100
0000
0001
0000
,
1100
0000
1000
0000
0001
0000
1000
0000
,
0000
1000
0001
0000
0100
0000
0001
0000
,
1000
0000
0000
0000
0000
0000
1100
0000
,
0011
0000
0001
0000
0100
0000
0100
0000
,
1100
0000
1000
0000
0001
0000
1000
0000
,
0001
0000
0000
0000
0100
0000
0001
0000
,
1010
0000
1000
0000
1000
0000
0001
0000
,
0001
0000
0000
0000
0100
0000
0001
0000
,
1100
0000
1000
0000
0001
0000
1000
0000
,
0000
0000
1000
0000
0010
0000
0100
0000
,
0001
0000
0010
0000
0001
0000
1000
0000
,
1000
0000
0100
0000
1000
0000
0001
0000
,
1100
0000
1000
0000
0001
0000
1000
0000
,
0000
0000
1000
0000
0010
0000
0100
0000
,
1100
0000
1000
0000
0001
0000
1000
0000
,
0000
0000
1000
0000
0010
0000
0100
0000
,
1100
0000
1000
0000
0001
0000
1000
0000
,
0000
0000
1000
0000
0010
0000
0100
0000
,
1000
0000
0100
0000
2000
0000
0000
0000
,
0000
0000
1000
0000
3000
0000
0000
0000
,
0000
0000
1000
0000
0011
0000
0001
0000
,
1000
0000
0000
0000
0001
0000
0000
0000
,
0001
0000
0000
0000
0000
0000
0000
0000
,
;
