#TITLE:Gary vs David Synthewave;
#SUBTITLE:;
#ARTIST:Regular Show;
#TITLETRANSLIT:;
#SUBTITLETRANSLIT:;
#ARTISTTRANSLIT:;
#GENRE:;
#CREDIT:Gorilla v1.1.3 (Dancing Monkeys v1.06);
#BANNER:hq720.png;
#BACKGROUND:;
#LYRICSPATH:;
#CDTITLE:;
#MUSIC:gary-vs-david-extended-original-by-owen-dennis-regular-show-128-ytshorts.savetube.me.mp3;
#OFFSET:-0.058583;
#SAMPLESTART:52.233585;
#SAMPLELENGTH:12.000000;
#SELECTABLE:YES;
#BPMS:0.000000=114.998001
;
#STOPS:
;
#BGCHANGES:;
#KEYSOUNDS:;
#ATTACKS:;

//---------------dance-single - Basic----------------
#NOTES:
     dance-single:
     Basic:
     Easy:
     3:
     0.122356,0.117767,0.000000,0.000000,0.000000,90.000000,90.000000,0.000000,0.000000,0.000000,0.000000,0.122356,0.117767,0.000000,0.000000,0.000000,90.000000,90.000000,0.000000,0.000000,0.000000,0.000000:
// measure 0
0000
0000
0000
0000
,  // measure 1
0000
0000
0000
0000
,  // measure 2
0000
0010
0000
1000
,  // measure 3
0000
1000
0000
0001
,  // measure 4
0000
1000
0000
0010
,  // measure 5
0000
0001
0000
0100
,  // measure 6
0000
1000
0000
0010
,  // measure 7
0000
1000
0000
0010
,  // measure 8
0000
0001
0000
0010
,  // measure 9
0000
1000
0000
0010
,  // measure 10
0000
0001
0000
0100
,  // measure 11
0000
0001
0000
0000
,  // measure 12
1000
0000
0100
0000
,  // measure 13
0001
0000
0100
0000
,  // measure 14
0001
0000
0010
0000
,  // measure 15
0001
0000
0000
0000
,  // measure 16
0001
0000
0010
0000
,  // measure 17
1000
0000
0000
0000
,  // measure 18
0001
0000
0010
0000
,  // measure 19
0001
0000
0000
0000
,  // measure 20
1000
0000
0100
0000
,  // measure 21
0001
0000
0100
0000
,  // measure 22
0001
0000
0100
0000
,  // measure 23
0100
0000
0001
0000
,  // measure 24
0100
0000
0100
0000
,  // measure 25
0001
0000
0100
0000
,  // measure 26
0100
0000
0001
0000
,  // measure 27
0100
0000
0100
0000
,  // measure 28
0001
0000
0100
0000
,  // measure 29
1000
0000
0001
0000
,  // measure 30
1000
0000
0010
0000
,  // measure 31
1000
0000
0000
0000
,  // measure 32
0001
0000
0010
0000
,  // measure 33
1000
0000
0100
0000
,  // measure 34
1000
0000
1000
0000
,  // measure 35
0001
0000
0000
0000
,  // measure 36
0000
0001
0000
0001
,  // measure 37
0000
1000
0000
1000
,  // measure 38
0000
0100
0000
0100
,  // measure 39
0000
0010
0000
0010
,  // measure 40
0000
0001
0000
0001
,  // measure 41
0000
1000
0000
1000
,  // measure 42
0000
0100
0000
0100
,  // measure 43
0000
0001
0001
0000
,  // measure 44
0001
0000
0100
0000
,  // measure 45
0100
0000
0001
0000
,  // measure 46
0100
0000
0100
0000
,  // measure 47
0001
0000
0001
0000
,  // measure 48
0010
0000
0010
0000
,  // measure 49
1000
0000
1000
0000
;

//---------------dance-single - Basic----------------
#NOTES:
     dance-single:
     :
     Medium:
     3:
     0.224319,0.211981,0.000000,0.066616,0.000000,165.000000,165.000000,0.000000,7.000000,0.000000,0.000000,0.224319,0.211981,0.000000,0.066616,0.000000,165.000000,165.000000,0.000000,7.000000,0.000000,0.000000:
// measure 0
0000
0000
0000
0000
,  // measure 1
2000
0000
0000
0000
,  // measure 2
3000
0010
0010
1000
,  // measure 3
1000
1000
0001
0001
,  // measure 4
1000
1000
0010
0010
,  // measure 5
0001
0001
0100
0100
,  // measure 6
1000
1000
0010
0010
,  // measure 7
1000
1000
0010
0010
,  // measure 8
0001
0001
0010
0010
,  // measure 9
1000
1000
0010
0010
,  // measure 10
0001
0001
0100
0100
,  // measure 11
0001
0001
0001
0000
,  // measure 12
1000
1000
0100
0010
,  // measure 13
0001
1000
0100
0010
,  // measure 14
0001
1000
0010
1000
,  // measure 15
0002
0000
0003
0000
,  // measure 16
0001
1000
0010
0000
,  // measure 17
2000
0000
3000
0000
,  // measure 18
0001
1000
0010
0000
,  // measure 19
0002
0000
0003
0000
,  // measure 20
1000
1000
0100
0010
,  // measure 21
0001
1000
0100
0010
,  // measure 22
0001
0010
0100
1000
,  // measure 23
0100
0010
0001
0010
,  // measure 24
0100
1000
0100
0010
,  // measure 25
0001
0010
0100
1000
,  // measure 26
0100
0010
0001
0010
,  // measure 27
0100
1000
0100
0010
,  // measure 28
0001
0001
0100
0100
,  // measure 29
1000
1000
0001
0001
,  // measure 30
1000
1000
0010
0010
,  // measure 31
2000
0000
3000
0000
,  // measure 32
0001
0001
0010
0010
,  // measure 33
1000
1000
0100
0100
,  // measure 34
1000
1000
1000
0000
,  // measure 35
0002
0000
0000
0003
,  // measure 36
0000
0001
0001
0001
,  // measure 37
0001
1000
1000
1000
,  // measure 38
1000
0100
0100
0100
,  // measure 39
0100
0010
0010
0010
,  // measure 40
0010
0001
0001
0001
,  // measure 41
0001
1000
1000
1000
,  // measure 42
1000
0100
0100
0100
,  // measure 43
0100
0001
0001
0000
,  // measure 44
0001
0010
0100
1000
,  // measure 45
0100
0010
0001
0010
,  // measure 46
0100
1000
0100
0000
,  // measure 47
0002
0000
0000
0003
,  // measure 48
0010
0010
0010
0000
,  // measure 49
1000
1000
1000
0000
;
