#TITLE:puffy-friends forever;
#SUBTITLE:;
#ARTIST:Dancing Monkeys Project;
#TITLETRANSLIT:;
#SUBTITLETRANSLIT:;
#ARTISTTRANSLIT:;
#GENRE:;
#CREDIT:Gorilla v1.1.3 (Dancing Monkeys v1.06);
#BANNER:images.png;
#BACKGROUND:Puffy_AmiYumi_-_Hi_Hi_Puffy_AmiYumi.png;
#LYRICSPATH:;
#CDTITLE:;
#MUSIC:puffy-friends forever.mp3;
#OFFSET:-0.262630;
#SAMPLESTART:35.428165;
#SAMPLELENGTH:12.000000;
#SELECTABLE:YES;
#BPMS:0.000000=170.621994
;
#STOPS:
;
#BGCHANGES:;
#KEYSOUNDS:;
#ATTACKS:;

//---------------dance-single - Basic----------------
#NOTES:
     dance-single:
     Basic:
     Easy:
     5:
     0.307196,0.343727,0.009515,0.000000,0.000000,226.000000,225.000000,1.000000,0.000000,0.000000,0.000000,0.307196,0.343727,0.009515,0.000000,0.000000,226.000000,225.000000,1.000000,0.000000,0.000000,0.000000:
0000
0000
0001
1000
,
0000
0000
1000
0001
,
0000
0001
0000
0000
,
0000
0000
0001
1000
,
0000
1000
0001
1000
,
0000
0001
1000
1000
,
0001
0000
0010
0100
,
0000
1000
0010
0100
,
0000
1000
0010
0100
,
1000
0001
0010
0001
,
1000
0000
0100
1000
,
0000
0000
0001
1000
,
1000
0001
0010
0001
,
0001
0100
0000
0100
,
1000
0001
1000
0000
,
0000
0000
1000
0010
,
0000
0001
1000
0100
,
0001
0010
0001
0000
,
0001
0000
1000
0010
,
1000
0001
1000
0000
,
0000
1000
0001
0100
,
0001
1000
0010
0001
,
1000
0001
0010
0001
,
1000
0001
1000
0000
,
0001
0100
0000
0100
,
0001
1000
0100
0001
,
0001
1000
0000
0000
,
0000
1000
0100
0010
,
0000
0001
1000
0100
,
0000
0001
1000
0100
,
1000
0000
0010
0000
,
0001
0001
0000
0000
,
1000
1000
0000
0000
,
0001
1000
0100
0001
,
0001
0000
0010
0100
,
1000
0010
1000
0000
,
0001
1000
0010
0100
,
0001
1000
0100
1000
,
0001
1000
0100
0010
,
1000
0010
1000
0000
,
0001
1000
0100
0010
,
1000
0001
0010
0100
,
0001
0000
0010
0001
,
0000
1000
0100
0010
,
1001
0010
0001
1000
,
0001
1000
0100
0010
,
0001
0100
0010
0001
,
1000
0001
0100
0010
,
0001
1000
0001
0100
,
0001
0100
0001
0100
,
0001
0000
0100
0000
,
0001
1000
0000
0000
,
0001
0000
0100
0000
,
1000
0010
0000
0100
,
0001
0100
0000
0100
,
1000
0010
0100
0001
,
1000
0100
1000
0001
,
0001
0100
0000
0100
,
0000
1000
0001
0100
,
1000
0100
1000
0001
,
1000
0000
0000
0100
,
1000
0010
0100
0000
,
0000
1000
0001
0100
,
0000
1000
0001
0100
,
0001
0000
0000
1000
,
0000
1000
0001
0100
,
0001
0000
1000
0010
,
0000
1000
0010
0100
,
1000
0100
1000
0001
,
1000
0001
1000
0100
,
0001
1000
0100
0010
,
1000
0001
1000
0010
,
0000
0001
0000
0000
;

//---------------dance-single - Basic----------------
#NOTES:
     dance-single:
     :
     Beginner:
     5:
     0.142724,0.126667,0.000000,0.000000,0.000000,105.000000,105.000000,0.000000,0.000000,0.000000,0.000000,0.142724,0.126667,0.000000,0.000000,0.000000,105.000000,105.000000,0.000000,0.000000,0.000000,0.000000:
// measure 0
0000
0000
0010
0000
,  // measure 1
1000
0000
0010
0000
,  // measure 2
1000
0000
0010
0000
,  // measure 3
1000
0000
0010
0000
,  // measure 4
0100
0000
0001
0000
,  // measure 5
0100
0000
0010
0000
,  // measure 6
0001
0000
0010
0000
,  // measure 7
0100
0000
0010
0000
,  // measure 8
0001
0000
0010
0000
,  // measure 9
1000
0000
0010
0000
,  // measure 10
0001
0000
0100
0000
,  // measure 11
0010
0000
0001
0000
,  // measure 12
1000
0000
0010
0000
,  // measure 13
0001
0000
0010
0000
,  // measure 14
1000
0000
0010
0000
,  // measure 15
0000
0000
1000
0000
,  // measure 16
0010
0000
1000
0000
,  // measure 17
0010
0000
0001
0000
,  // measure 18
0100
0000
0001
0000
,  // measure 19
1000
0000
0010
0000
,  // measure 20
0000
1000
0000
0100
,  // measure 21
0000
1000
0000
0010
,  // measure 22
0000
1000
0000
0010
,  // measure 23
0000
0100
0000
0010
,  // measure 24
0000
0100
0000
1000
,  // measure 25
0000
0010
0000
0100
,  // measure 26
0000
1000
0000
0010
,  // measure 27
0000
1000
0000
0010
,  // measure 28
0000
0001
0000
0100
,  // measure 29
0000
0001
0000
0100
,  // measure 30
0000
0010
0000
0100
,  // measure 31
0000
0001
0000
0010
,  // measure 32
0000
1000
0000
0010
,  // measure 33
0000
1000
0000
0001
,  // measure 34
0000
1000
0000
0100
,  // measure 35
0000
0010
0000
0100
,  // measure 36
0000
1000
0000
0100
,  // measure 37
0000
0010
0000
1000
,  // measure 38
0000
0100
0000
0001
,  // measure 39
0000
0010
0000
0100
,  // measure 40
0000
0001
0000
0010
,  // measure 41
0000
1000
0000
0100
,  // measure 42
0000
1000
0000
0001
,  // measure 43
0000
1000
0000
0010
,  // measure 44
0000
0100
0000
0001
,  // measure 45
0000
0010
0000
0100
,  // measure 46
0000
1000
0000
0010
,  // measure 47
0000
0001
0000
1000
,  // measure 48
0000
0010
0000
1000
,  // measure 49
0000
0010
0000
0100
,  // measure 50
0000
0001
0000
0100
,  // measure 51
0000
0001
0000
1000
,  // measure 52
0000
0010
0000
1000
,  // measure 53
0000
0010
0000
0000
;
