#VERSION:0.83;
#TITLE:Fresh Prince of Bel Air;
#SUBTITLE:;
#ARTIST:Unknown artist;
#TITLETRANSLIT:;
#SUBTITLETRANSLIT:;
#ARTISTTRANSLIT:;
#GENRE:;
#ORIGIN:;
#CREDIT:;
#BANNER:banner.png;
#BACKGROUND:;
#PREVIEWVID:;
#JACKET:;
#CDIMAGE:;
#DISCIMAGE:;
#LYRICSPATH:;
#CDTITLE:;
#MUSIC:Fresh Prince of Bel Air Intro.mp3;
#OFFSET:0.000000;
#SAMPLESTART:-0.028420;
#SAMPLELENGTH:12.000000;
#SELECTABLE:YES;
#BPMS:0.000=156.000;
#STOPS:;
#DELAYS:;
#WARPS:;
#TIMESIGNATURES:0.000=4=4;
#TICKCOUNTS:0.000=4;
#COMBOS:0.000=1;
#SPEEDS:0.000=1.000=0.000=0;
#SCROLLS:0.000=1.000;
#FAKES:;
#LABELS:0.000=Song Start;
#BGCHANGES:0.125=Fresh Prince of Bel Air Intro (youtubemp4.to).mp4=1.000=0=0=1=====,
99999=-nosongbg-=1.000=0=0=0 // don't automatically add -songbackground-
;
#KEYSOUNDS:;
#ATTACKS:
;

//---------------dance-single - ----------------
#NOTEDATA:;
#CHARTNAME:;
#STEPSTYPE:dance-single;
#DESCRIPTION:;
#CHARTSTYLE:;
#DIFFICULTY:Hard;
#METER:6;
#RADARVALUES:0.551001,0.543838,0.145205,0.136130,0.000000,425.000000,409.000000,16.000000,15.000000,0.000000,0.000000,0.000000,0.000000,0.000000,0.551001,0.543838,0.145205,0.136130,0.000000,425.000000,409.000000,16.000000,15.000000,0.000000,0.000000,0.000000,0.000000,0.000000;
#CREDIT:;
#NOTES:
0000
0000
0000
0000
,
0000
0000
1000
0000
0001
1000
0001
0000
,
1000
0010
1000
0010
1000
0001
0000
1000
,
0100
0000
0010
0001
0010
0001
0010
0100
,
0000
0010
0100
0000
0010
0100
0000
1100
,
0000
1000
0010
0000
1000
0010
0001
0000
,
0010
0001
0000
0010
0100
0010
0100
1000
,
0000
0100
0000
0010
0001
0010
0100
0010
,
0100
0000
1000
0100
0010
0001
0000
0010
,
0000
0001
0010
0000
0100
0010
0100
0000
,
1000
0000
1100
0000
0100
0010
0001
0010
,
0001
0010
0000
0100
1000
0000
0100
1000
,
0100
0010
0001
0011
0000
0010
0100
0010
,
0100
0010
0100
0000
0000
1100
1000
0000
,
0100
0010
0000
0001
0010
0000
0001
0010
,
0000
0100
0010
0000
0100
1000
0000
0100
,
0010
0000
0001
0010
0000
0001
0010
0000
,
0100
0010
0000
0100
1000
0000
0100
0010
,
0000
0100
1000
0000
0100
0010
0001
0010
,
0000
0100
0010
0001
0010
0000
0100
0010
,
0100
0010
0100
1000
0100
1000
0100
0000
,
1000
0000
0100
0010
0001
0010
0001
0010
,
0000
0110
0100
0010
0000
0000
1000
0001
,
1000
0001
1000
0100
0010
0001
0010
0110
,
0000
0000
0001
0010
0001
0010
0100
0010
,
0100
1000
0100
0110
0000
1000
0100
0010
,
0001
0010
0001
0000
0010
0100
0010
0100
,
1000
0100
0000
0010
0001
0010
0100
0010
,
0100
0110
1000
0100
0010
0000
0001
0010
,
0001
0010
0100
0010
0000
0001
0010
0100
,
0000
0010
0000
0100
0000
1000
0100
0010
,
0001
0010
0100
1000
0100
0010
0001
0000
,
0000
0001
1000
0000
0001
1000
0100
0010
,
0001
0010
0001
0010
0000
0100
0010
0100
,
1000
0000
0100
0010
0001
0011
0010
0000
,
0001
0000
0010
0100
0010
0100
1000
0100
,
0010
0001
0010
0001
0010
0100
0010
0100
,
1000
0100
0010
0100
0010
0100
0100
0010
,
0100
0000
0000
1001
1000
0100
0010
0000
,
0001
0010
0100
1000
0100
0000
0010
0001
,
0010
0011
0001
0010
0100
1000
0100
0000
,
1000
0000
1000
1000
0100
0010
0010
0010
,
0001
0001
0000
0001
0010
0010
0100
0000
,
0010
0100
2000
0000
3000
0110
0001
0010
,
0001
0010
0000
0000
0100
0010
0100
1000
,
0000
0100
0011
0000
0011
0010
0000
0100
,
0010
0100
1000
0100
0000
0010
0100
0010
,
0100
1000
0001
0000
0000
1000
0100
0100
,
0000
0010
0010
0010
0001
0001
0001
0000
,
0010
0010
0010
0100
0100
1000
0100
0010
,
0001
0010
0001
0000
0000
0010
0000
0100
,
1000
0000
0100
0010
0000
0000
0001
0000
,
0000
0010
0100
0000
1000
0100
0010
0000
,
0002
0000
0023
0000
0030
0000
1000
0100
,
0000
0010
0001
0000
0020
0000
0032
0000
,
0003
0000
1000
0000
0100
0010
0000
0001
,
0020
0000
0000
0032
0000
0003
0000
1000
,
0100
0010
0100
0010
0100
0000
0001
0010
,
0100
0000
1000
0100
0010
0100
0010
0100
,
0001
0010
0001
0010
0001
0010
0110
0000
,
0100
0001
0100
0001
0100
1000
0100
0010
,
0100
0000
0000
1000
0100
0010
0001
0010
,
0100
0010
0001
0010
0100
1000
0000
0000
,
1000
0000
0100
0010
0000
0100
0020
0000
,
2030
0000
0000
3000
0000
0000
1000
0100
,
0000
0010
0002
0000
0020
0003
0000
0000
,
0030
0001
0010
0000
0100
1000
0000
0200
,
0000
2300
0000
3000
0000
1000
0000
0100
,
0010
0000
0100
0010
0000
0100
0010
0100
,
0000
1001
0000
1000
0010
0000
0001
0200
,
0000
0320
0030
0000
;

//---------------dance-single - ----------------
#NOTEDATA:;
#CHARTNAME:;
#STEPSTYPE:dance-single;
#DESCRIPTION:;
#CHARTSTYLE:;
#DIFFICULTY:Easy;
#METER:6;
#RADARVALUES:0.256702,0.285872,0.000000,0.099828,0.000000,198.000000,198.000000,0.000000,11.000000,0.000000,0.000000,0.000000,0.000000,0.000000,0.256702,0.285872,0.000000,0.099828,0.000000,198.000000,198.000000,0.000000,11.000000,0.000000,0.000000,0.000000,0.000000,0.000000;
#CREDIT:;
#NOTES:
// measure 0
0000
0000
0000
0000
,  // measure 1
0000
2000
0000
0000
,  // measure 2
0000
3000
1000
0000
,  // measure 3
0100
0000
0010
0000
,  // measure 4
0010
0000
0010
0000
,  // measure 5
0100
0000
0010
0000
,  // measure 6
0001
0000
0001
0000
,  // measure 7
0100
0000
0010
0000
,  // measure 8
0100
0000
1000
0000
,  // measure 9
0010
0000
0100
0000
,  // measure 10
1000
0000
0100
0000
,  // measure 11
0001
0000
0100
0000
,  // measure 12
0100
0000
0010
0000
,  // measure 13
0100
0000
0010
0000
,  // measure 14
0100
0000
0010
0001
,  // measure 15
0000
0010
0100
0000
,  // measure 16
0010
0001
0001
0001
,  // measure 17
0100
0000
1000
0100
,  // measure 18
0000
1000
0100
0001
,  // measure 19
0000
0010
0010
0100
,  // measure 20
0100
0100
0100
0100
,  // measure 21
0100
0100
0001
0001
,  // measure 22
0000
0100
0000
1000
,  // measure 23
0001
1000
0010
0010
,  // measure 24
0000
0001
0001
0100
,  // measure 25
0100
0100
0000
0100
,  // measure 26
0001
0001
0010
0010
,  // measure 27
1000
0000
0001
0100
,  // measure 28
0100
1000
0010
0001
,  // measure 29
0001
0100
0000
0010
,  // measure 30
0000
0000
0000
0100
,  // measure 31
0001
0100
0100
0001
,  // measure 32
0000
1000
0001
0100
,  // measure 33
0001
0001
0000
0010
,  // measure 34
1000
0100
0001
0010
,  // measure 35
0001
0010
0010
1000
,  // measure 36
0010
0010
0010
0010
,  // measure 37
1000
0010
0010
0100
,  // measure 38
0100
0000
1000
0010
,  // measure 39
0001
0100
0100
0010
,  // measure 40
0010
0001
0100
0100
,  // measure 41
1000
1000
0100
0010
,  // measure 42
0001
0000
0010
0100
,  // measure 43
0010
2000
3000
0001
,  // measure 44
0001
0000
0100
0100
,  // measure 45
0000
0001
0001
0000
,  // measure 46
0010
1000
0000
0100
,  // measure 47
0100
0001
0000
0100
,  // measure 48
0000
0010
0001
0001
,  // measure 49
0010
0010
0100
0100
,  // measure 50
0001
0001
0000
0000
,  // measure 51
1000
0100
0000
0001
,  // measure 52
0000
0100
1000
0000
,  // measure 53
0020
0000
0030
1000
,  // measure 54
1000
0001
0000
0002
,  // measure 55
0003
1000
0200
0000
,  // measure 56
0320
0000
0000
0030
0002
0000
0003
0000
,  // measure 57
0001
0100
0100
0001
,  // measure 58
0100
1000
0010
0010
,  // measure 59
0001
0001
0001
0100
,  // measure 60
0100
0100
0100
0100
,  // measure 61
0100
0000
0100
0001
,  // measure 62
0100
0001
0100
0000
,  // measure 63
1000
0100
0000
0020
,  // measure 64
2030
0000
0000
3000
0000
0000
1000
0000
,  // measure 65
0000
0000
0002
0000
0020
0003
0000
0000
,  // measure 66
0030
0010
0100
0000
,  // measure 67
1000
1000
1000
0000
,  // measure 68
0010
0100
0000
0010
,  // measure 69
0000
0000
0010
0001
,  // measure 70
0100
0000
0000
0000
;
