#TITLE:Freak The Freak Out;
#SUBTITLE:;
#ARTIST:Dancing Monkeys Project;
#TITLETRANSLIT:;
#SUBTITLETRANSLIT:;
#ARTISTTRANSLIT:;
#GENRE:;
#CREDIT:Gorilla v1.1.3 (Dancing Monkeys v1.06);
#BANNER:;
#BACKGROUND:;
#LYRICSPATH:;
#CDTITLE:;
#MUSIC:Freak The Freak Out.mp3;
#OFFSET:-0.274331;
#SAMPLESTART:43.142811;
#SAMPLELENGTH:12.000000;
#SELECTABLE:YES;
#BPMS:0.000000=139.962997
;
#STOPS:
;
#BGCHANGES:;
#KEYSOUNDS:;
#ATTACKS:;

//---------------dance-single - Basic----------------
#NOTES:
     dance-single:
     Basic:
     Easy:
     3:
     0.286927,0.260378,0.000000,0.039228,0.000000,256.000000,256.000000,0.000000,5.000000,0.000000,0.000000,0.286927,0.260378,0.000000,0.039228,0.000000,256.000000,256.000000,0.000000,5.000000,0.000000,0.000000:
// measure 0
0001
1000
0100
0010
,  // measure 1
1000
0001
0010
0100
,  // measure 2
0001
0010
0000
0100
,  // measure 3
1000
0100
0000
0010
,  // measure 4
1000
0010
0000
0100
,  // measure 5
1000
0010
0000
0100
,  // measure 6
0000
1000
0001
0100
,  // measure 7
0001
0010
0000
0100
,  // measure 8
0000
1000
0001
0100
,  // measure 9
0000
1000
0001
0010
,  // measure 10
0000
1000
0001
0010
,  // measure 11
0001
0010
0000
0100
,  // measure 12
0000
1000
0001
0100
,  // measure 13
0001
0001
1000
0010
,  // measure 14
0001
0010
0010
0100
,  // measure 15
0100
0010
1000
2000
,  // measure 16
0000
0000
0000
0000
,  // measure 17
3000
1000
0100
0010
,  // measure 18
0001
1000
0010
0100
,  // measure 19
0001
1000
0010
0100
,  // measure 20
0010
1000
0001
0100
,  // measure 21
0010
1000
0001
0010
,  // measure 22
1000
0001
1000
0010
,  // measure 23
0100
1000
0001
0100
,  // measure 24
0001
1000
0010
0100
,  // measure 25
2000
0000
0000
0000
,  // measure 26
0000
0000
3000
0100
,  // measure 27
0001
1000
0010
0100
,  // measure 28
0001
1000
0010
0100
,  // measure 29
0001
1000
0010
0100
,  // measure 30
0010
1000
0001
0100
,  // measure 31
0001
0001
0100
0100
,  // measure 32
1000
1000
0001
0001
,  // measure 33
0000
1000
1000
0010
,  // measure 34
0010
0001
0001
0100
,  // measure 35
0100
1000
1000
0100
,  // measure 36
0100
1000
1000
0010
,  // measure 37
0010
0100
0100
0001
,  // measure 38
0001
0010
0010
1000
,  // measure 39
0001
1000
0001
0100
,  // measure 40
0100
0010
0010
0100
,  // measure 41
0100
1000
1000
0100
,  // measure 42
0100
1000
0001
0100
,  // measure 43
0100
1000
0001
0010
,  // measure 44
0001
0001
0010
0010
,  // measure 45
1000
1000
0010
0010
,  // measure 46
1000
1000
0100
0100
,  // measure 47
0001
0001
0100
0100
,  // measure 48
0100
0001
0001
0010
,  // measure 49
0010
0001
0001
0100
,  // measure 50
0100
0001
1000
0100
,  // measure 51
0100
1000
0001
0100
,  // measure 52
1000
1000
0001
0010
,  // measure 53
0010
0010
1000
0010
,  // measure 54
1000
1000
0001
0010
,  // measure 55
1000
1000
0001
0100
,  // measure 56
0100
0001
0001
0200
,  // measure 57
0000
0000
0000
0300
,  // measure 58
1000
0010
0010
0010
,  // measure 59
1000
1000
0100
0100
,  // measure 60
0001
0001
0010
0010
,  // measure 61
0010
1000
1000
0100
,  // measure 62
1000
0001
0010
0100
,  // measure 63
1000
1000
0001
0100
,  // measure 64
0001
1000
0100
0100
,  // measure 65
1000
0001
0010
0010
,  // measure 66
0002
0000
0000
0000
,  // measure 67
0000
0000
0003
0100
,  // measure 68
0100
0001
0001
1000
,  // measure 69
1000
0001
0001
0010
,  // measure 70
0020
0000
0000
0000
,  // measure 71
0000
0000
0030
0100
,  // measure 72
0100
0001
0001
0010
,  // measure 73
0010
0010
0000
0010
;

//---------------dance-single - Standard----------------
#NOTES:
     dance-single:
     Standard:
     Medium:
     5:
     0.319430,0.371002,0.023537,0.015691,0.000000,285.000000,282.000000,3.000000,2.000000,0.000000,0.000000,0.319430,0.371002,0.023537,0.015691,0.000000,285.000000,282.000000,3.000000,2.000000,0.000000,0.000000:
1001
0000
1000
0001
1000
0000
0100
0000
,
1001
0000
0001
1000
0001
0000
0010
0000
,
0001
0000
0100
0000
0001
0000
0100
0000
,
0001
0000
0010
0000
0001
0000
0010
0000
,
1000
0000
0010
0000
1000
0000
0010
0000
,
0001
0000
0100
0000
0001
0000
0100
0000
,
0001
0000
0100
0000
0001
0000
0100
0000
,
0001
0000
0100
0000
0001
0000
0100
0000
,
0001
0000
0100
0000
0001
0000
0100
0000
,
0001
0000
0100
0000
0001
0000
0100
0000
,
1000
0000
0010
0000
1000
0000
0010
0000
,
0001
0000
0100
0000
0001
0000
0100
0000
,
0001
0000
0100
0000
0001
0000
0100
0000
,
0001
0000
0010
0000
0001
0000
0010
0000
,
0001
0000
0100
0000
0001
0000
0100
0000
,
1000
0000
0010
0000
1000
0000
0002
0000
,
0000
0000
0000
0000
0000
0000
0000
0000
,
0003
0000
0001
0010
0001
0000
0100
0000
,
0001
0000
1000
0000
0100
0000
1000
0000
,
0001
0000
1000
0000
0010
0000
1000
0000
,
0001
0000
0100
0000
0001
0000
0100
0000
,
0001
0000
0100
0000
0001
0000
0100
0000
,
0001
0000
0100
0000
0001
0000
0100
0000
,
1000
0000
0010
0000
1000
0000
0010
0000
,
0001
0000
1000
0000
0100
0000
1000
0000
,
0001
0000
0100
0000
0001
0000
0100
0000
,
1000
0000
0100
0000
1000
0000
0100
0000
,
0001
0000
1000
0000
0100
0000
1000
0000
,
0001
0000
0100
0000
0001
0000
0100
0000
,
0001
0000
1000
0000
0100
0000
1000
0000
,
0001
0000
0100
0000
0001
0000
0100
0000
,
0000
0000
1000
0000
0100
0000
0010
0000
,
0001
0000
0100
0000
0001
0000
0100
0000
,
0001
0000
0010
0000
0001
0000
0010
0000
,
0000
0000
1000
0000
0001
0000
0010
0000
,
0001
0000
0100
0000
0001
0000
0100
0000
,
1000
0000
0010
0000
1000
0000
0010
0000
,
0000
0000
1000
0000
0100
0000
0010
0000
,
0001
0000
0100
0000
0001
0000
0100
0000
,
0001
0000
0100
0000
0001
0000
0100
0000
,
0001
0000
0100
0000
0001
0000
0100
0000
,
0001
0000
0100
0000
0001
0000
0100
0000
,
1000
0000
0100
0000
1000
0000
0100
0000
,
0001
0000
0100
0000
0001
0000
0100
0000
,
0001
0000
0010
0000
0001
0000
0010
0000
,
1000
0000
0100
0000
1000
0000
0100
0000
,
1000
0000
0010
0000
1000
0000
0010
0000
,
0001
0000
0100
0000
0001
0000
0100
0000
,
0001
0000
0100
0000
0001
0000
0100
0000
,
0001
0000
0010
0000
0001
0000
0010
0000
,
1000
0000
0100
0000
1000
0000
0100
0000
,
1000
0000
0100
0000
1000
0000
0100
0000
,
1000
0000
0100
0000
1000
0000
0100
0000
,
0001
0000
0100
0000
0001
0000
0100
0000
,
0001
0000
0100
0000
0001
0000
0100
0000
,
1000
0000
0100
0000
1000
0000
0100
0000
,
0001
0000
0010
0000
0001
0000
0002
0000
,
0000
0000
0000
0000
0000
0000
0003
0000
,
1001
0000
0001
0010
0001
0000
0100
0000
,
0001
0000
1000
0000
0100
0000
1000
0000
,
1000
0000
0001
0000
0100
0000
0001
0000
,
1000
0000
0001
0000
0100
0000
0001
0000
,
1000
0000
0001
0000
0100
0000
0001
0000
,
0001
0000
0100
0000
0001
0000
0100
0000
,
0001
0000
1000
0000
0100
0000
1000
0000
,
1000
0000
0001
0000
0010
0000
0001
0000
,
0001
0000
1000
0000
0100
0000
1000
0000
,
0000
0000
1000
0000
0001
0000
0010
0000
,
0001
0000
1000
0000
0100
0000
1000
0000
,
0001
0000
1000
0000
0100
0000
1000
0000
,
1000
0000
0001
0000
0010
0000
0001
0000
,
0001
0000
1000
0000
0100
0000
1000
0000
,
0000
0000
1000
0000
0100
0000
0010
0000
,
;

//---------------dance-single - Heavy----------------
#NOTES:
     dance-single:
     Heavy:
     Hard:
     6:
     0.337363,0.399540,0.023537,0.015691,0.000000,301.000000,298.000000,3.000000,2.000000,0.000000,0.000000,0.337363,0.399540,0.023537,0.015691,0.000000,301.000000,298.000000,3.000000,2.000000,0.000000,0.000000:
0011
0000
0001
0010
0100
0000
1000
0000
,
1010
0000
1000
0010
0100
0000
0001
0010
,
0001
0000
1000
0000
0100
0000
1000
0001
,
0001
0000
1000
0000
0010
0000
1000
0001
,
0001
0000
1000
0000
0010
0000
1000
0001
,
0001
0000
1000
0000
0100
0000
1000
0001
,
0001
0000
0100
0000
0001
0000
1000
0000
,
0001
0000
1000
0000
0100
0000
1000
0001
,
0001
0000
0100
0000
0001
0000
1000
0000
,
1000
0000
0010
0000
1000
0000
0001
0000
,
1000
0000
0100
0000
1000
0000
0001
0000
,
0001
0000
1000
0000
0100
0000
1000
0001
,
0001
0000
0100
0000
0001
0000
1000
0000
,
1000
0000
0010
0000
1000
0000
0001
0000
,
0001
0000
1000
0000
0100
0000
1000
0001
,
1000
0000
0001
0000
0010
0000
0020
0000
,
0000
0000
0000
0000
0000
0000
0000
0000
,
0030
0001
1000
0100
0010
0000
0100
0000
,
1000
0000
0001
0000
0100
0000
0010
0000
,
1000
0000
0001
0000
0010
0000
0100
0000
,
0001
0000
0100
0000
0001
0000
1000
0000
,
0001
0000
0100
0000
0001
0000
1000
0000
,
1000
0000
0010
0000
1000
0000
0001
0000
,
1000
0000
0010
0000
1000
0000
0001
0000
,
1000
0000
0001
0000
0100
0000
0010
0000
,
0001
0000
0100
0000
0001
0000
1000
0000
,
0001
0000
0100
0000
0001
0000
1000
0000
,
1000
0000
0001
0000
0100
0000
0010
0000
,
0001
0000
0100
0000
0001
0000
1000
0000
,
1000
0000
0001
0000
0100
0000
0010
0000
,
0001
0000
0100
0000
0001
0000
1000
0000
,
1000
0000
0010
0000
1000
0000
0001
0000
,
0001
0000
0100
0000
0001
0000
1000
0000
,
0001
0000
0010
0000
0001
0000
1000
0000
,
1000
0000
0001
0000
0100
0000
0001
0000
,
0001
0000
0100
0000
0001
0000
1000
0000
,
1000
0000
0100
0000
1000
0000
0001
0000
,
1000
0000
0010
0000
1000
0000
0001
0000
,
0001
0000
1000
0000
0100
0000
1000
0001
,
0001
0000
0100
0000
0001
0000
1000
0000
,
0001
0000
1000
0000
0100
0000
1000
0001
,
0001
0000
0100
0000
0001
0000
1000
0000
,
1000
0000
0100
0000
1000
0000
0001
0000
,
1000
0000
0010
0000
1000
0000
0001
0000
,
1000
0000
0010
0000
1000
0000
0001
0000
,
0001
0000
0010
0000
0001
0000
1000
0000
,
0001
0000
0010
0000
0001
0000
1000
0000
,
0001
0000
0010
0000
0001
0000
1000
0000
,
0001
0000
0010
0000
0001
0000
1000
0000
,
0001
0000
0100
0000
0001
0000
1000
0000
,
1000
0000
0100
0000
1000
0000
0001
0000
,
1000
0000
0010
0000
1000
0000
0001
0000
,
1000
0000
0100
0000
1000
0000
0001
0000
,
1000
0000
0010
0000
1000
0000
0001
0000
,
0001
0000
0010
0000
0001
0000
1000
0000
,
1000
0000
0010
0000
1000
0000
0001
0000
,
0001
0000
0100
0000
0001
0000
0002
0000
,
0000
0000
0000
0000
0000
0000
0003
0000
,
1010
0000
1000
0100
0010
0000
0100
0000
,
1000
0000
0001
0000
0100
0000
0010
0000
,
1000
0000
0001
0000
0010
0000
0100
0000
,
1000
0000
0001
0000
0100
0000
0010
0000
,
1000
0000
0001
0000
0010
0000
0100
0000
,
0001
0000
0100
0000
0001
0000
1000
0000
,
1000
0000
0001
0000
0100
0000
0010
0000
,
0001
0000
1000
0000
0100
0000
0010
0000
,
1000
0000
0001
0000
0100
0000
0010
0000
,
1000
0000
0001
0000
0100
0000
0001
0000
,
1000
0000
0001
0000
0100
0000
0010
0000
,
1000
0000
0001
0000
0100
0000
0010
0000
,
1000
0000
0001
0000
0100
0000
0010
0000
,
0001
0000
1000
0000
0010
0000
0100
0000
,
1000
0000
0010
0000
1000
0000
0001
0000
,
;
