#TITLE:Four Fist Death Punch;
#SUBTITLE:;
#ARTIST:Unknown artist;
#TITLETRANSLIT:;
#SUBTITLETRANSLIT:;
#ARTISTTRANSLIT:;
#GENRE:;
#CREDIT:;
#BANNER:maxresdefault.png;
#BACKGROUND:ddtaz2o-021f9f79-9588-4beb-b5cd-cfd0f0813285.png;
#LYRICSPATH:;
#CDTITLE:;
#MUSIC:onlymp3.to - Death Battle Four Fist Death Punch Score from the Rooster Teeth Series -Usg6QiVo5gg-192k-1706589824.mp3;
#OFFSET:0.000000;
#SAMPLESTART:100.000000;
#SAMPLELENGTH:12.000000;
#SELECTABLE:YES;
#BPMS:0.000000=60.000000
,6.000000=100.000000
,15.000000=120.000000
,110.000000=130.000000
;
#STOPS:
;
#BGCHANGES:;
#KEYSOUNDS:;
#ATTACKS:;

//---------------dance-single - ----------------
#NOTES:
     dance-single:
     :
     Easy:
     1:
     0.209659,0.243899,0.005623,0.011246,0.000000,261.000000,260.000000,1.000000,2.000000,0.000000,0.000000,0.209659,0.243899,0.005623,0.011246,0.000000,261.000000,260.000000,1.000000,2.000000,0.000000,0.000000:
// measure 0
0000
0000
0000
0000
,  // measure 1
0000
0000
0000
0010
,  // measure 2
1000
0010
0010
0100
,  // measure 3
0010
1000
0000
0100
,  // measure 4
0010
0100
1000
0010
,  // measure 5
1000
0100
0010
0100
,  // measure 6
0010
1000
0001
0100
,  // measure 7
0010
1000
0010
0001
,  // measure 8
0010
0100
0100
0001
,  // measure 9
0010
0001
0100
0001
,  // measure 10
1000
0100
0010
1000
,  // measure 11
0001
0010
0100
0001
,  // measure 12
0010
1001
0100
0010
,  // measure 13
1000
0010
0100
1000
,  // measure 14
0010
0100
0001
0000
,  // measure 15
0100
0010
0001
0010
,  // measure 16
0001
0010
1000
0001
,  // measure 17
0010
0100
1000
0010
,  // measure 18
0100
0001
0010
1000
,  // measure 19
0010
0100
0001
1000
,  // measure 20
0001
0100
0010
1000
,  // measure 21
0100
0010
0001
0100
,  // measure 22
0001
0100
1000
0010
,  // measure 23
0100
0001
0010
0100
,  // measure 24
0001
0010
0100
1000
,  // measure 25
0010
0100
0001
0010
,  // measure 26
0100
0010
2000
0000
,  // measure 27
0000
3000
0000
0000
0000
0000
1000
0000
,  // measure 28
0010
0100
1000
0010
,  // measure 29
0100
0010
0100
0010
,  // measure 30
1000
0100
0010
0010
,  // measure 31
0100
0010
0010
1000
,  // measure 32
0010
1000
0010
0001
,  // measure 33
0100
1000
0010
0001
,  // measure 34
0100
0010
0001
0100
,  // measure 35
0010
0100
0010
0100
,  // measure 36
0002
0000
0000
0000
,  // measure 37
0003
0100
0010
0001
,  // measure 38
0100
0010
0001
0100
,  // measure 39
0100
0010
0001
0100
,  // measure 40
0010
0100
1000
0010
,  // measure 41
0100
0010
0100
1000
,  // measure 42
0010
0100
0001
0100
,  // measure 43
1000
0010
0100
0001
,  // measure 44
0010
1000
0010
0100
,  // measure 45
0001
0010
0100
0001
,  // measure 46
0010
1000
0010
0100
,  // measure 47
0001
0010
1000
0010
,  // measure 48
0100
0001
0010
0100
,  // measure 49
0001
1000
0100
1000
,  // measure 50
0010
0001
0010
0100
,  // measure 51
0001
0010
1000
0010
,  // measure 52
0100
0001
1000
0010
,  // measure 53
0100
0001
0010
1000
,  // measure 54
0010
0100
0001
0000
,  // measure 55
0000
0000
0000
0000
,  // measure 56
0000
0000
0000
0000
,  // measure 57
0000
0000
0010
0000
,  // measure 58
0100
0100
0000
0010
,  // measure 59
0000
0000
0000
0001
,  // measure 60
0000
1000
0000
0100
,  // measure 61
0000
0010
0000
0001
,  // measure 62
0000
0100
0000
0001
,  // measure 63
0000
0010
0000
1000
,  // measure 64
0000
0010
0000
0100
,  // measure 65
0000
0010
0000
1000
,  // measure 66
0000
0100
0000
0010
,  // measure 67
0000
0001
0000
0010
,  // measure 68
0000
0100
0000
1000
,  // measure 69
0000
0010
0000
0100
,  // measure 70
0000
0001
0000
0010
,  // measure 71
0000
1000
0000
0100
,  // measure 72
0000
0010
0000
0100
,  // measure 73
0000
1000
0000
0000
,  // measure 74
0000
0001
0000
0010
,  // measure 75
0000
0100
0000
1000
,  // measure 76
0000
0010
0000
0100
,  // measure 77
0000
0001
0000
0010
,  // measure 78
0000
1000
0000
0010
,  // measure 79
0000
0100
0000
1000
,  // measure 80
0000
0010
0000
0100
,  // measure 81
0000
0001
0000
0010
,  // measure 82
0000
0100
0000
0010
,  // measure 83
0000
0100
0000
0010
,  // measure 84
0000
1000
0000
0010
,  // measure 85
0000
0100
0000
0001
,  // measure 86
0000
0100
0000
0010
;
