#VERSION:0.83;
#TITLE:Fortnite Winterfest;
#SUBTITLE:;
#ARTIST:Dancing Monkeys Project;
#TITLETRANSLIT:;
#SUBTITLETRANSLIT:;
#ARTISTTRANSLIT:;
#GENRE:;
#ORIGIN:;
#CREDIT:Gorilla v1.1.3 (Dancing Monkeys v1.06);
#BANNER:;
#BACKGROUND:;
#PREVIEWVID:;
#JACKET:;
#CDIMAGE:;
#DISCIMAGE:;
#LYRICSPATH:;
#CDTITLE:;
#MUSIC:WINTERFEST WISH (Lyrics) English - Fortnite Lobby Track.mp3;
#OFFSET:-0.337143;
#SAMPLESTART:44.908569;
#SAMPLELENGTH:12.000000;
#SELECTABLE:YES;
#BPMS:0.000=140.000;
#STOPS:;
#DELAYS:0.000=14.000;
#WARPS:;
#TIMESIGNATURES:0.000=4=4;
#TICKCOUNTS:0.000=4;
#COMBOS:0.000=1;
#SPEEDS:0.000=1.000=0.000=0;
#SCROLLS:0.000=1.000;
#FAKES:;
#LABELS:0.000=Song Start;
#BGCHANGES:;
#KEYSOUNDS:;
#ATTACKS:
;

//---------------dance-single - Basic----------------
#NOTEDATA:;
#CHARTNAME:Basic;
#STEPSTYPE:dance-single;
#DESCRIPTION:Basic;
#CHARTSTYLE:;
#DIFFICULTY:Easy;
#METER:3;
#RADARVALUES:0.166192,0.189825,0.000000,0.048072,0.000000,242.000000,242.000000,0.000000,10.000000,0.000000,0.000000,0.000000,0.000000,0.000000,0.166192,0.189825,0.000000,0.048072,0.000000,242.000000,242.000000,0.000000,10.000000,0.000000,0.000000,0.000000,0.000000,0.000000;
#CREDIT:Basic;
#NOTES:
0000
0000
0000
0100
,
0000
0001
0000
1000
,
0000
0010
0000
0100
,
0000
0010
0000
0100
,
0000
0010
0000
1000
,
0000
0010
0000
0002
,
0000
0000
0000
0003
,
0000
0001
1000
0010
,
1000
0001
0100
0000
,
0001
0010
0100
0000
,
1000
0100
1000
0100
,
1000
0001
0100
0000
,
0001
1000
0000
0100
,
1000
0100
1000
0000
,
0001
1000
0100
0010
,
0001
1000
0010
0000
,
1000
0001
0100
0000
,
0001
1000
0100
0000
,
0001
0001
0100
0100
,
0001
0001
0001
0000
,
1000
1000
0000
0100
,
0100
0100
0100
0000
,
0001
0001
0100
0100
,
0001
0001
0000
0001
,
0000
1000
0000
0010
,
0000
0100
0000
0001
,
0000
0100
0000
0001
,
0000
0010
0000
0100
,
0000
0001
0000
0010
,
0000
1000
0000
0100
,
0000
1000
0000
0002
,
0000
0000
0000
0003
,
0001
0010
0100
1000
,
0100
0010
0001
0100
,
0100
1000
1000
0010
,
0010
0001
0010
0001
,
0100
0100
0010
0010
,
0001
0001
1000
1000
,
0010
0100
0010
0001
,
0001
1000
0010
0000
,
1000
0001
0100
0000
,
1000
0001
0010
0000
,
1000
0100
1000
0100
,
1000
0001
0100
0100
,
0001
1000
1000
0100
,
1000
0001
0100
0000
,
0001
1000
0100
0010
,
0001
1000
0010
0000
,
1000
0000
0100
0000
,
0001
0000
0010
0000
,
1000
0000
0010
0000
,
1000
0000
0100
0000
,
0001
1000
0000
0100
,
0000
0001
0000
0010
,
0000
1000
0000
0010
,
0000
0100
0000
0001
,
0000
1000
0000
0100
,
0000
1000
0000
0010
,
0000
0100
0000
0001
,
0000
0010
0000
0100
,
0000
0010
0000
0100
,
0000
0001
0000
0100
,
0000
1000
0000
0010
,
0000
1000
0000
0200
,
0000
0000
0000
2300
,
0000
0000
0000
3002
,
0000
0000
0203
0000
,
0000
2300
0000
0000
,
3020
0000
0030
0200
,
0000
0000
0000
0300
,
0002
0000
0000
0003
,
0001
1000
0010
0000
,
0001
1000
0001
0000
,
1000
0001
0100
0000
,
0001
1000
0001
0000
,
1000
0100
1000
0100
,
0001
1000
0010
0000
,
0001
1000
0100
0010
,
1000
0001
0010
0100
,
0001
1000
0010
0010
,
1000
0001
0100
0100
,
0001
1000
0010
0010
,
1000
0001
0100
0100
,
0001
1000
0100
0010
,
1000
0001
0100
0100
,
0001
0100
0001
0100
,
0001
1000
0100
0010
,
0001
1000
0010
0010
;
