#VERSION:0.83;
#TITLE:Chris Brown - Forever (Sped Up);
#SUBTITLE:;
#ARTIST:Dancing Monkeys Project;
#TITLETRANSLIT:;
#SUBTITLETRANSLIT:;
#ARTISTTRANSLIT:;
#GENRE:;
#ORIGIN:;
#CREDIT:Gorilla v1.1.3 (Dancing Monkeys v1.06);
#BANNER:hq720.png;
#BACKGROUND:ab67616d0000b27362c1d4e83165432013f4bd20.png;
#PREVIEWVID:;
#JACKET:;
#CDIMAGE:;
#DISCIMAGE:;
#LYRICSPATH:;
#CDTITLE:;
#MUSIC:Chris Brown - Forever (Sped Up).mp3;
#OFFSET:-1.556188;
#SAMPLESTART:43.002018;
#SAMPLELENGTH:12.000000;
#SELECTABLE:YES;
#BPMS:0.000=144.767;
#STOPS:;
#DELAYS:;
#WARPS:;
#TIMESIGNATURES:0.000=4=4;
#TICKCOUNTS:0.000=4;
#COMBOS:0.000=1;
#SPEEDS:0.000=1.000=0.000=0;
#SCROLLS:0.000=1.000;
#FAKES:;
#LABELS:0.000=Song Start;
#BGCHANGES:;
#KEYSOUNDS:;
#ATTACKS:
;

//---------------dance-single - Basic----------------
#NOTEDATA:;
#CHARTNAME:Basic;
#STEPSTYPE:dance-single;
#DESCRIPTION:Basic;
#CHARTSTYLE:;
#DIFFICULTY:Easy;
#METER:3;
#RADARVALUES:0.200740,0.167632,0.000000,0.004715,0.000000,298.000000,298.000000,0.000000,1.000000,0.000000,0.000000,0.000000,0.000000,0.000000,0.200740,0.167632,0.000000,0.004715,0.000000,298.000000,298.000000,0.000000,1.000000,0.000000,0.000000,0.000000,0.000000,0.000000;
#CREDIT:Basic;
#NOTES:
1000
0000
0000
0000
,
0001
0000
0000
0000
,
0010
0000
0000
0000
,
1000
0100
0010
0001
,
1000
0100
0010
0001
,
1000
0100
0010
0001
,
1000
1000
0010
0100
,
1000
0100
0010
0001
,
0001
0010
0100
1000
,
1000
0100
0001
0001
,
0001
0000
1000
1000
,
1000
0100
0010
0001
,
0001
0100
0010
0001
,
0001
0010
0100
0100
,
0001
0010
0010
0100
,
1000
0100
0001
1000
,
1000
0010
0001
0001
,
0001
0010
0100
0100
,
1000
1000
1000
0001
,
1000
0100
0010
0001
,
0001
0010
0100
0001
,
0001
0100
0100
1000
,
1000
1000
1000
0001
,
0001
0010
0100
1000
,
1000
0000
0001
0001
,
0001
0010
0100
0001
,
0001
0000
1000
0001
,
1000
0010
0010
1000
,
0001
0010
0100
1000
,
1000
0100
0010
0001
,
0001
1000
1000
0001
,
0001
0100
0100
0010
,
0001
0010
0010
0100
,
0001
0010
0010
0100
,
0001
1000
1000
0100
,
1000
1000
0001
0100
,
1000
0001
0001
0001
,
0001
1000
1000
0100
,
1000
0001
0001
0100
,
0001
0001
1000
0100
,
0001
1000
1000
0010
,
0001
1000
0100
0100
,
1000
0001
0001
0100
,
1000
1000
0001
0010
,
0001
1000
1000
0100
,
1000
0001
0001
0010
,
0001
1000
1000
0100
,
1000
0001
0001
0100
,
0001
1000
0100
0100
,
1000
0010
0010
1000
,
1000
0001
0001
0010
,
0001
1000
0010
1000
,
1000
0001
0001
0100
,
0001
0010
0100
1000
,
1000
0010
0010
0100
,
0001
1000
0100
0100
,
1000
0001
0001
0010
,
0001
1000
0010
1000
,
1000
0010
0010
0100
,
1000
0001
0001
0010
,
0001
1000
0010
0010
,
1000
0000
0001
0100
,
0001
0000
0010
0001
,
0001
0100
0100
0010
,
0001
1000
0100
0100
,
0001
0100
0100
0010
,
0001
1000
1000
0100
,
1000
0001
0001
0100
,
1000
1000
0001
0010
,
1000
1000
0001
0100
,
0001
1000
0100
0100
,
1000
0000
0001
0100
,
0001
1000
0100
0010
,
0001
1000
0100
0010
,
1000
0001
0001
0100
,
0010
1000
0010
0100
,
0001
1000
0100
0010
,
0001
1000
0010
1000
,
2000
0000
0000
0000
,
3000
0000
0000
0000
;

//---------------dance-single - Basic----------------
#NOTEDATA:;
#CHARTNAME:;
#STEPSTYPE:dance-single;
#DESCRIPTION:Basic;
#CHARTSTYLE:;
#DIFFICULTY:Beginner;
#METER:3;
#RADARVALUES:0.103738,0.093129,0.000000,0.004715,0.000000,154.000000,154.000000,0.000000,1.000000,0.000000,0.000000,0.000000,0.000000,0.000000,0.103738,0.093129,0.000000,0.004715,0.000000,154.000000,154.000000,0.000000,1.000000,0.000000,0.000000,0.000000,0.000000,0.000000;
#CREDIT:;
#NOTES:
// measure 0
1000
0000
0000
0000
,  // measure 1
0001
0000
0000
0000
,  // measure 2
0010
0000
0000
0000
,  // measure 3
1000
0000
0010
0000
,  // measure 4
1000
0000
0010
0000
,  // measure 5
1000
0000
0010
0000
,  // measure 6
1000
0000
0010
0000
,  // measure 7
1000
0000
0010
0000
,  // measure 8
0001
0000
0100
0000
,  // measure 9
1000
0000
0001
0000
,  // measure 10
0010
0000
0100
0000
,  // measure 11
1000
0000
0010
0000
,  // measure 12
0001
0000
0010
0000
,  // measure 13
0001
0000
0100
0000
,  // measure 14
0001
0000
0010
0000
,  // measure 15
1000
0000
0001
0000
,  // measure 16
1000
0000
0010
0000
,  // measure 17
0001
0000
0100
0000
,  // measure 18
0001
0000
1000
0000
,  // measure 19
1000
0000
0010
0000
,  // measure 20
0001
0000
0100
0000
,  // measure 21
0001
0000
0100
0000
,  // measure 22
0001
0000
1000
0000
,  // measure 23
0001
0000
0100
0000
,  // measure 24
1000
0000
0010
0000
,  // measure 25
0001
0000
0100
0000
,  // measure 26
0001
0000
0100
0000
,  // measure 27
1000
0000
0010
0000
,  // measure 28
0001
0000
0100
0000
,  // measure 29
1000
0000
0010
0000
,  // measure 30
0001
0000
1000
0000
,  // measure 31
0001
0000
0100
0000
,  // measure 32
0001
0000
0010
0000
,  // measure 33
0001
0000
0010
0000
,  // measure 34
0001
0000
1000
0000
,  // measure 35
1000
0000
0001
0000
,  // measure 36
1000
0000
0010
0000
,  // measure 37
0001
0000
1000
0000
,  // measure 38
0010
0000
0001
0000
,  // measure 39
0010
0000
1000
0000
,  // measure 40
0001
0000
1000
0000
,  // measure 41
0001
0000
0100
0000
,  // measure 42
1000
0000
0001
0000
,  // measure 43
1000
0000
0100
0000
,  // measure 44
0001
0000
0100
0000
,  // measure 45
1000
0000
0010
0000
,  // measure 46
0001
0000
0100
0000
,  // measure 47
1000
0000
0100
0000
,  // measure 48
0001
0000
0100
0000
,  // measure 49
1000
0000
0010
0000
,  // measure 50
1000
0000
0100
0000
,  // measure 51
0001
0000
0010
0000
,  // measure 52
1000
0000
0100
0000
,  // measure 53
0001
0000
0100
0000
,  // measure 54
1000
0000
0010
0000
,  // measure 55
0001
0000
0100
0000
,  // measure 56
1000
0000
0001
0000
,  // measure 57
0100
0000
0010
0000
,  // measure 58
1000
0000
0010
0000
,  // measure 59
1000
0000
0010
0000
,  // measure 60
0001
0000
0010
0000
,  // measure 61
1000
0000
0100
0000
,  // measure 62
0001
0000
0010
0000
,  // measure 63
0001
0000
0100
0000
,  // measure 64
0001
0000
0100
0000
,  // measure 65
0001
0000
0100
0000
,  // measure 66
0001
0000
0100
0000
,  // measure 67
1000
0000
0001
0000
,  // measure 68
1000
0000
0001
0000
,  // measure 69
1000
0000
0100
0000
,  // measure 70
0001
0000
0100
0000
,  // measure 71
1000
0000
0010
0000
,  // measure 72
0001
0000
0100
0000
,  // measure 73
0001
0000
0100
0000
,  // measure 74
1000
0000
0001
0000
,  // measure 75
0100
0000
0010
0000
,  // measure 76
0001
0000
0100
0000
,  // measure 77
0001
0000
0010
0000
,  // measure 78
2000
0000
0000
0000
,  // measure 79
3000
0000
0000
0000
;
