#TITLE:0Initial D - Forever Young (Remastered 2017) (1);
#SUBTITLE:;
#ARTIST:Dancing Monkeys Project;
#TITLETRANSLIT:;
#SUBTITLETRANSLIT:;
#ARTISTTRANSLIT:;
#GENRE:;
#CREDIT:Gorilla v1.1.3 (Dancing Monkeys v1.06);
#BANNER:;
#BACKGROUND:;
#LYRICSPATH:;
#CDTITLE:;
#MUSIC:0Initial D - Forever Young (Remastered 2017) (1).mp3;
#OFFSET:-1.251882;
#SAMPLESTART:39.229202;
#SAMPLELENGTH:12.000000;
#SELECTABLE:YES;
#BPMS:0.000000=157.988998
;
#STOPS:
;
#BGCHANGES:;
#KEYSOUNDS:;
#ATTACKS:;

//---------------dance-single - Basic----------------
#NOTES:
     dance-single:
     Basic:
     Easy:
     4:
     0.146425,0.126308,0.000000,0.018923,0.000000,325.000000,325.000000,0.000000,6.000000,0.000000,0.000000,0.146425,0.126308,0.000000,0.018923,0.000000,325.000000,325.000000,0.000000,6.000000,0.000000,0.000000:
// measure 0
1000
0200
0000
0000
,  // measure 1
0300
0100
0000
0000
,  // measure 2
0000
0002
0000
0000
,  // measure 3
0003
0001
0000
0000
,  // measure 4
0000
2000
0000
0000
,  // measure 5
3000
1000
0010
0010
,  // measure 6
0000
0020
0000
0000
,  // measure 7
0030
0010
0000
0000
,  // measure 8
0000
1000
0010
1000
,  // measure 9
1000
0100
0100
1000
,  // measure 10
1000
0100
0100
0001
,  // measure 11
0001
0100
0100
0001
,  // measure 12
0001
0100
0010
1000
,  // measure 13
1000
0010
0010
0010
,  // measure 14
0001
0200
0000
0300
,  // measure 15
0001
0000
0010
0100
,  // measure 16
1000
0001
0100
0100
,  // measure 17
0001
1000
1000
0010
,  // measure 18
1000
0001
0100
0100
,  // measure 19
0001
1000
0010
0010
,  // measure 20
1000
0001
0010
0010
,  // measure 21
0001
1000
1000
1000
,  // measure 22
0001
0001
0010
0010
,  // measure 23
0001
0001
1000
1000
,  // measure 24
1000
0001
0100
0100
,  // measure 25
1000
0001
0010
0010
,  // measure 26
0001
1000
1000
0010
,  // measure 27
1000
0001
0001
0100
,  // measure 28
1000
0001
0100
0100
,  // measure 29
0001
1000
0010
0010
,  // measure 30
0001
0001
0001
0100
,  // measure 31
0100
0000
0100
0000
,  // measure 32
0000
1000
1000
0010
,  // measure 33
1000
0001
0001
0100
,  // measure 34
0001
1000
0010
0010
,  // measure 35
1000
0001
0010
0010
,  // measure 36
0001
0010
0010
0100
,  // measure 37
1000
0001
0001
0100
,  // measure 38
0001
1000
1000
0010
,  // measure 39
0001
1000
1000
0100
,  // measure 40
0001
1000
1000
0100
,  // measure 41
1000
0001
0010
0010
,  // measure 42
1000
0001
0010
0010
,  // measure 43
0001
1000
0100
0100
,  // measure 44
0001
0001
1000
0100
,  // measure 45
0100
0001
1000
0100
,  // measure 46
1000
0001
0001
0100
,  // measure 47
0100
0001
1000
0100
,  // measure 48
0100
1000
0001
0100
,  // measure 49
1000
0001
0001
0100
,  // measure 50
0100
0001
1000
0100
,  // measure 51
1000
0001
0001
0100
,  // measure 52
0100
1000
1000
0100
,  // measure 53
1000
0001
0001
0100
,  // measure 54
0100
0100
1000
0100
,  // measure 55
0001
0010
0001
0001
,  // measure 56
0001
0001
1000
0100
,  // measure 57
1000
0001
0001
0100
,  // measure 58
1000
0001
0001
0100
,  // measure 59
0001
1000
1000
0010
,  // measure 60
0001
1000
0100
0010
,  // measure 61
0001
0001
1000
0100
,  // measure 62
0100
1000
1000
0100
,  // measure 63
0100
1000
1000
0000
,  // measure 64
1000
0001
0100
0100
,  // measure 65
1000
0001
0100
0100
,  // measure 66
0001
0001
1000
0100
,  // measure 67
1000
0001
0001
0100
,  // measure 68
1000
0001
0001
0100
,  // measure 69
0100
0001
1000
0100
,  // measure 70
0100
1000
1000
0010
,  // measure 71
0010
1000
1000
1000
,  // measure 72
0000
0001
1000
0100
,  // measure 73
1000
0001
0100
0100
,  // measure 74
0001
1000
0010
0010
,  // measure 75
0001
1000
1000
0010
,  // measure 76
0001
1000
0100
0100
,  // measure 77
0001
1000
1000
0010
,  // measure 78
0001
1000
1000
1000
,  // measure 79
0001
0002
0000
0003
,  // measure 80
1000
0001
0100
0100
,  // measure 81
0001
1000
1000
0010
,  // measure 82
0010
0100
0100
0001
,  // measure 83
0001
1000
1000
0010
,  // measure 84
0010
1000
1000
0010
,  // measure 85
0010
0100
0100
0001
,  // measure 86
0001
1000
1000
0010
,  // measure 87
0010
1000
1000
0001
,  // measure 88
0001
0010
0010
0100
,  // measure 89
0100
0000
0000
0000
;

//---------------dance-single - Standard----------------
#NOTES:
     dance-single:
     Standard:
     Medium:
     5:
     0.286541,0.324837,0.009461,0.018923,0.000000,636.000000,633.000000,3.000000,6.000000,0.000000,0.000000,0.286541,0.324837,0.009461,0.018923,0.000000,636.000000,633.000000,3.000000,6.000000,0.000000,0.000000:
0001
0000
0020
0000
0000
0000
0000
0000
,
0000
0000
0030
0000
0001
0000
1000
0000
,
1000
0000
1000
0000
1000
0000
0000
0000
,
0000
0000
0000
0000
0001
0000
0001
0000
,
0000
0000
0001
0000
0001
0000
1000
0000
,
0000
0000
0000
0000
0001
0000
1000
0000
,
1000
0000
0200
0000
0000
0000
0000
0000
,
0000
0000
0001
0000
0000
0000
0300
0000
,
0000
0000
1000
0000
0010
0000
1000
0000
,
1000
0000
0000
0000
0001
0000
1000
0000
,
1000
0000
0000
0000
0001
0000
1000
0000
,
0001
0000
0000
0000
1000
0000
0001
0000
,
0001
0000
0010
0000
0100
0010
0000
0000
,
1000
0000
0000
0000
0001
0000
1000
0000
,
0001
0000
0010
0000
0100
0010
0000
0000
,
0001
0000
0000
0000
1000
0000
0001
0000
,
0001
0000
0010
0000
0000
0000
0100
0000
,
1000
0000
0100
0000
0000
0000
0010
0000
,
1000
0000
0100
0000
0000
0000
0010
0000
,
0001
0000
0100
0000
0000
0000
0010
0000
,
1000
0000
0010
0000
0000
0000
0100
0000
,
1000
0000
0010
0000
0000
0000
0100
0000
,
0001
0000
0010
0000
0000
0000
0100
0000
,
1000
0000
0001
0000
0000
0000
0000
0000
,
0001
0000
0010
0000
0000
0000
0100
0000
,
1000
0000
0010
0000
0000
0000
0100
0000
,
1000
0000
0010
0000
0000
0000
0100
0000
,
0001
0000
0010
0000
0000
0000
0100
0000
,
1000
0000
0100
0000
0000
0000
0010
0000
,
0001
0000
0010
0000
0000
0000
0100
0000
,
0001
0000
0100
0000
0001
0000
1000
0000
,
0001
0000
0000
0000
1000
0000
0000
0000
,
0000
0000
0001
0000
1000
0000
0010
0000
,
0001
0000
0010
0000
0000
0000
0100
0000
,
1000
0000
0010
0000
0000
0000
0100
0000
,
0001
0000
0010
0000
0000
0000
0100
0000
,
0001
0000
0000
0000
1000
0000
0001
0000
,
0001
0000
0010
0000
0000
0000
0100
0000
,
1000
0000
0010
0000
0000
0000
0100
0000
,
0001
0000
0100
0000
0000
0000
0010
0000
,
1000
0000
0100
0000
0000
0000
0010
0000
,
0001
0000
0010
0000
0000
0000
0100
0000
,
1000
0000
0010
0000
0000
0000
0100
0000
,
0001
0000
0100
0000
0000
0000
0010
0000
,
0001
0000
0100
0000
0001
0000
1000
0000
,
1000
0000
0010
0000
1000
0000
0001
0000
,
0001
0000
0010
0000
0000
0000
0100
0000
,
0001
0000
0100
0000
0001
0000
1000
0000
,
1000
0000
0010
0000
1000
0000
0001
0000
,
0001
0000
0010
0000
0000
0000
0100
0000
,
0001
0000
0100
0000
0001
0000
1000
0000
,
0001
0000
0010
0000
0000
0000
0100
0000
,
0001
0000
0100
0000
0001
0000
1000
0000
,
0001
0000
0010
0000
0000
0000
0100
0000
,
0001
0000
0100
0000
0001
0000
1000
0000
,
1000
0000
0001
0000
0010
0000
0000
0000
,
0001
0000
0100
0000
0001
0000
1000
0000
,
0001
0000
0010
0000
0000
0000
0100
0000
,
0001
0000
0100
0000
0000
0000
0010
0000
,
0001
0000
0010
0000
0000
0000
0100
0000
,
0001
0000
0100
0000
0000
0000
0010
0000
,
0001
0000
0100
0000
0001
0000
1000
0000
,
0001
0000
0010
0000
0001
0000
1000
0000
,
1000
0000
1010
0000
1000
0000
0000
0000
,
0001
0000
0010
0000
0000
0000
0100
0000
,
1000
0000
0100
0000
0000
0000
0010
0000
,
0001
0000
0100
0000
0001
0000
1000
0000
,
0001
0000
0010
0000
0000
0000
0100
0000
,
1000
0000
0100
0000
0000
0000
0010
0000
,
0001
0000
0100
0000
0001
0000
1000
0000
,
0001
0000
0010
0000
0001
0000
1000
0000
,
0001
0000
0000
0000
0100
0000
0001
0000
,
0001
0000
0100
0000
0001
0000
1000
0000
,
0001
0000
0010
0000
0000
0000
0100
0000
,
0001
0000
0100
0000
0000
0000
0010
0000
,
0001
0000
0010
0000
0000
0000
0100
0000
,
0001
0000
0100
0000
0000
0000
0010
0000
,
1000
0000
0010
0000
0000
0000
0100
0000
,
1000
0000
0100
0000
0000
0000
0010
0000
,
1000
0000
1000
0000
1000
0000
0000
0000
,
0001
0000
0010
0000
0000
0000
0100
0000
,
1000
0000
0010
0000
0000
0000
0100
0000
,
1000
0000
0010
0000
0000
0000
0100
0000
,
0001
0000
0010
0000
0000
0000
0100
0000
,
0001
0000
0010
0000
0000
0000
0100
0000
,
0001
0000
0010
0000
0000
0000
0100
0000
,
0001
0000
0010
0000
0000
0000
0100
0000
,
0001
0000
0010
0000
0000
0000
0100
0000
,
1000
0000
0010
0000
0000
0000
0100
0000
,
0001
0000
0100
0000
0001
0000
1000
0000
,
0001
0000
0010
0000
0000
0000
0100
0000
,
0001
0000
0100
0000
0001
0000
1000
0000
,
0001
0000
0010
0000
0000
0000
0100
0000
,
0001
0000
0100
0000
0001
0000
1000
0000
,
1000
0000
0100
0000
1000
0000
0001
0000
,
0001
0000
0100
0000
0001
0000
1000
0000
,
0001
0000
0100
0000
0001
0000
1000
0000
,
0001
0000
0010
0000
0000
0000
0100
0000
,
0001
0000
0100
0000
0001
0000
1000
0000
,
0001
0000
0010
0000
0000
0000
0100
0000
,
0001
0000
0100
0000
0001
0000
1000
0000
,
0001
0000
0010
0000
0000
0000
0100
0000
,
0001
0000
0010
0000
0000
0000
0100
0000
,
1000
0000
0001
0000
0010
0000
0000
0000
,
0001
0000
0100
0000
0001
0000
1000
0000
,
0001
0000
0010
0000
0000
0000
0100
0000
,
0001
0000
0100
0000
0000
0000
0010
0000
,
0001
0000
0100
0000
0000
0000
0010
0000
,
1000
0000
0010
0000
0000
0000
0100
0000
,
0001
0000
0100
0000
0001
0000
1000
0000
,
0001
0000
0100
0000
0001
0000
1000
0000
,
1000
0000
1010
0000
1000
0000
0000
0000
,
0001
0000
0100
0000
0001
0000
1000
0000
,
0001
0000
0010
0000
0000
0000
0100
0000
,
0001
0000
0100
0000
0001
0000
1000
0000
,
0001
0000
0010
0000
0000
0000
0100
0000
,
1000
0000
0100
0000
0000
0000
0010
0000
,
0001
0000
0100
0000
0001
0000
1000
0000
,
0001
0000
0010
0000
0000
0000
0100
0000
,
0001
0000
0000
0000
0100
0000
0001
0000
,
0001
0000
0100
0000
0001
0000
1000
0000
,
0001
0000
0010
0000
0000
0000
0100
0000
,
1000
0000
0100
0000
0000
0000
0010
0000
,
1000
0000
0100
0000
0000
0000
0010
0000
,
0001
0000
0010
0000
0000
0000
0100
0000
,
1000
0000
0010
0000
0000
0000
0100
0000
,
1000
0000
0100
0000
0000
0000
0010
0000
,
1000
0000
1000
0000
1000
0000
0000
0000
,
0001
0000
0010
0000
0000
0000
0100
0000
,
1000
0000
0100
0000
0000
0000
0010
0000
,
0001
0000
0000
0000
1000
0000
0001
0000
,
0001
0000
0010
0000
0000
0000
0100
0000
,
0001
0000
0100
0000
0000
0000
0010
0000
,
0001
0000
0010
0000
0000
0000
0100
0000
,
0001
0000
0010
0000
0000
0000
0100
0000
,
1000
0000
0010
0000
0000
0000
0100
0000
,
0001
0000
0000
0000
1000
0000
0001
0000
,
0001
0000
0010
0000
0000
0000
0100
0000
,
0001
0000
0000
0000
1000
0000
0001
0000
,
0001
0000
0000
0000
1000
0000
0001
0000
,
1000
0000
0000
0000
0001
0000
1000
0000
,
0001
0000
0010
0000
0000
0000
0100
0000
,
0001
0000
0000
0000
1000
0000
0001
0000
,
1000
0000
0000
0000
0001
0000
1000
0000
,
0001
0000
0010
0000
0000
0000
0100
0000
,
0001
0000
0100
0000
0001
0000
1000
0000
,
0001
0000
0010
0000
0000
0000
0100
0000
,
1000
0000
0010
0000
0000
0000
0100
0000
,
0001
0000
0100
0000
0001
0000
1000
0000
,
0001
0000
0010
0000
0000
0000
0100
0000
,
1000
0000
0010
0000
0000
0000
0100
0000
,
1000
0000
0001
0000
0010
0000
0000
0000
,
1000
0000
1000
0000
1000
0000
0000
0000
,
0000
0000
0001
0000
0001
0000
1000
0000
,
0000
0000
1000
0000
1000
0000
0001
0000
,
0000
0000
0001
0000
0100
0000
0000
0000
,
0000
0000
0001
0000
0001
0000
1000
0000
,
1000
0000
0000
0000
0010
0000
0010
0000
,
1000
0000
1000
0000
1000
0000
0000
0000
,
1000
0000
1010
0000
1000
0000
0000
0000
,
0000
0000
0000
0000
0001
0000
0001
0000
,
0001
0000
0000
0000
0000
0000
0100
0000
,
0000
0000
0000
0000
0001
0000
0001
0000
,
0000
0000
0000
0000
1000
0000
1000
0000
,
0001
0000
0010
0000
0000
0000
0100
0000
,
0001
0000
0100
0000
0000
0000
0010
0000
,
0001
0000
0010
0000
0000
0000
0100
0000
,
0001
0000
0000
0000
0100
0000
0001
0000
,
0001
0000
0100
0000
0010
0000
1000
0000
,
0001
0000
0010
0000
0000
0000
0100
0000
,
0001
0000
0100
0000
0000
0000
0010
0000
,
0001
0000
0010
0000
0000
0000
0100
0000
,
1000
0000
0100
0000
0000
0000
0010
0000
,
1000
0000
0010
0000
0000
0000
0100
0000
,
0001
0000
0100
0000
0001
0000
1000
0000
,
1000
0000
1000
0000
1000
0000
0000
0000
,
1000
0000
0200
0000
0000
0000
0000
0000
,
0000
0000
0300
0000
0001
0000
1000
0000
,
0002
0000
1000
0000
0000
0000
0000
0000
,
0003
0000
0000
0000
0001
0000
0001
0000
,
0000
0000
0002
0000
0000
0000
1000
0000
,
0000
0000
0003
0000
0001
0000
0001
0000
,
0200
0000
1000
0000
0000
0000
0000
0000
,
0000
0000
0000
0000
0000
0000
0301
0000
,
0000
0000
1000
0000
0010
0000
1000
0000
,
1000
0000
0000
0000
0001
0000
1000
0000
,
0001
0000
0010
0000
0100
0010
0000
0000
,
1000
0000
0000
0000
0001
0000
1000
0000
,
0001
0000
0010
0000
0100
0010
0000
0000
,
1000
0000
0000
0000
0001
0000
1000
0000
,
0001
0000
0010
0000
0100
0010
0000
0000
,
0001
0000
0010
0000
0000
0000
0100
0000
,
0001
0000
0010
0000
0000
0000
0100
0000
,
1000
0000
0010
0000
0000
0000
0100
0000
,
0001
0000
0010
0000
0000
0000
0100
0000
,
1000
0000
0100
0000
0000
0000
0010
0000
,
1000
0000
0100
0000
0000
0000
0010
0000
,
1000
0000
0100
0000
0000
0000
0010
0000
,
0001
0000
0100
0000
0000
0000
0010
0000
,
1000
0000
0100
0000
0000
0000
0000
0000
,
0001
0000
0000
0000
1000
0000
0001
0000
,
0001
0000
0010
0000
0000
0000
0100
0000
,
1000
0000
0100
0000
0000
0000
0010
0000
,
1000
0000
0100
0000
0000
0000
0010
0000
,
0001
0000
0000
0000
0001
0000
0010
0000
,
0001
0000
0001
0000
0000
0000
0000
0000
,
1000
0000
0000
0000
0000
0000
0000
0000
,
;

//---------------dance-single - Heavy----------------
#NOTES:
     dance-single:
     Heavy:
     Hard:
     6:
     0.340155,0.324837,0.009461,0.015769,0.000000,755.000000,752.000000,3.000000,5.000000,0.000000,0.000000,0.340155,0.324837,0.009461,0.015769,0.000000,755.000000,752.000000,3.000000,5.000000,0.000000,0.000000:
0001
0000
0020
0000
0000
0000
0000
0000
,
0000
0000
0030
0000
0000
0000
0001
0010
,
1000
0000
1000
0000
1000
0000
0000
0000
,
0000
0000
0000
0000
1000
0000
1000
0000
,
0000
0001
0010
0000
0010
0000
0000
0000
,
0000
0000
0000
0000
0000
0000
0001
0010
,
1000
0000
0002
0000
0000
0000
0000
0000
,
0000
0000
0001
0000
0000
0000
0003
0000
,
0000
0000
1000
0000
0001
1000
0100
0000
,
1000
0000
0000
0000
0100
0010
0100
0000
,
0001
0000
0000
0000
0010
0100
0010
0000
,
0001
0000
0000
0000
0100
0010
0100
0000
,
0001
0000
0100
0000
0001
1000
0000
0000
,
1000
0000
0000
0000
0100
0010
0100
0000
,
0001
0000
0100
0000
0001
1000
0000
0000
,
1000
0000
0000
0000
0100
0000
1000
0000
,
0001
0000
0010
0000
0010
0000
0001
0000
,
1000
0000
0100
0000
0100
0000
1000
0000
,
0001
0000
0010
0000
0010
0000
0001
0000
,
1000
0000
0100
0000
0100
0000
1000
0000
,
1000
0000
0010
0000
0010
0000
1000
0000
,
0001
0000
0010
0000
0010
0000
0001
0000
,
0001
0000
0010
0000
0010
0000
0001
0000
,
0001
0100
0010
0000
0000
0000
0000
0000
,
0001
0000
0010
0000
0010
0000
0001
0000
,
0001
0000
0100
0000
0100
0000
0001
0000
,
0001
0000
0100
0000
0100
0000
0001
0000
,
1000
0000
0010
0000
0010
0000
1000
0000
,
0001
0000
0100
0000
0100
0000
0001
0000
,
1000
0000
0010
0000
0010
0000
1000
0000
,
1000
0000
0100
0000
1000
0000
0010
0000
,
1000
0000
0000
0000
0100
0000
0000
0000
,
0000
0000
1000
0000
0100
0000
0010
0000
,
0001
0000
0010
0000
0010
0000
0001
0000
,
1000
0000
0100
0000
0100
0000
1000
0000
,
1000
0000
0010
0000
0010
0000
1000
0000
,
1000
0000
0000
0000
0100
0000
1000
0000
,
0001
0000
0010
0000
0010
0000
0001
0000
,
1000
0000
0010
0000
0010
0000
1000
0000
,
1000
0000
0010
0000
0010
0000
1000
0000
,
0001
0000
0100
0000
0100
0000
0001
0000
,
1000
0000
0100
0000
0100
0000
1000
0000
,
0001
0000
0010
0000
0010
0000
0001
0000
,
1000
0000
0100
0000
0100
0000
1000
0000
,
1000
0000
0100
0000
1000
0000
0010
0000
,
0001
0000
0100
0000
0001
0000
0010
0000
,
0001
0000
0010
0000
0010
0000
0001
0000
,
1000
0000
0100
0000
1000
0000
0010
0000
,
0001
0000
0010
0000
0001
0000
0100
0000
,
0001
0000
0010
0000
0010
0000
0001
0000
,
1000
0000
0100
0000
1000
0000
0010
0000
,
0001
0000
0010
0000
0010
0000
0001
0000
,
1000
0000
0100
0000
1000
0000
0010
0000
,
0001
0000
0010
0000
0010
0000
0001
0000
,
1000
0000
0100
0000
1000
0000
0010
0000
,
0001
0000
0100
0000
0001
0000
0000
0000
,
1000
0000
0100
0000
1000
0000
0010
0000
,
0001
0000
0010
0000
0010
0000
0001
0000
,
0001
0000
0100
0000
0100
0000
0001
0000
,
1000
0000
0010
0000
0010
0000
1000
0000
,
1000
0000
0010
0000
0010
0000
1000
0000
,
1000
0000
0100
0000
1000
0000
0010
0000
,
1000
0000
0100
0000
1000
0000
0010
0000
,
1000
0000
0110
0000
0001
0000
0000
0000
,
0001
0000
0010
0000
0010
0000
0001
0000
,
0001
0000
0100
0000
0100
0000
0001
0000
,
1000
0000
0100
0000
1000
0000
0010
0000
,
0001
0000
0010
0000
0010
0000
0001
0000
,
0001
0000
0010
0000
0010
0000
0001
0000
,
1000
0000
0100
0000
1000
0000
0010
0000
,
1000
0000
0010
0000
1000
0000
0100
0000
,
1000
0000
0000
0000
0010
0000
0100
0100
,
1000
0000
0100
0000
1000
0000
0010
0000
,
0001
0000
0010
0000
0010
0000
0001
0000
,
0001
0000
0100
0000
0100
0000
0001
0000
,
1000
0000
0100
0000
0100
0000
1000
0000
,
0001
0000
0100
0000
0100
0000
0001
0000
,
1000
0000
0010
0000
0010
0000
1000
0000
,
1000
0000
0100
0000
0100
0000
1000
0000
,
1000
0000
1000
0000
1000
0000
0000
0000
,
0001
0000
0010
0000
0010
0000
0001
0000
,
0001
0000
0010
0000
0010
0000
0001
0000
,
0001
0000
0010
0000
0010
0000
0001
0000
,
1000
0000
0100
0000
0100
0000
1000
0000
,
0001
0000
0010
0000
0010
0000
0001
0000
,
1000
0000
0100
0000
0100
0000
1000
0000
,
1000
0000
0100
0000
0100
0000
1000
0000
,
0001
0000
0010
0000
0010
0000
0001
0000
,
1000
0000
0010
0000
0010
0000
1000
0000
,
1000
0000
0100
0000
1000
0000
0010
0000
,
0001
0000
0010
0000
0010
0000
0001
0000
,
1000
0000
0100
0000
1000
0000
0010
0000
,
0001
0000
0010
0000
0010
0000
0001
0000
,
1000
0000
0100
0000
1000
0000
0010
0000
,
1000
0000
0100
0000
1000
0000
0010
0000
,
0001
0000
0010
0000
0001
0000
0100
0000
,
0001
0000
0100
0000
0001
0000
0010
0000
,
0001
0000
0010
0000
0010
0000
0001
0000
,
1000
0000
0100
0000
1000
0000
0010
0000
,
0001
0000
0010
0000
0010
0000
0001
0000
,
1000
0000
0100
0000
1000
0000
0010
0000
,
0001
0000
0010
0000
0010
0000
0001
0000
,
0001
0000
0010
0000
0010
0000
0001
0000
,
0001
0000
0100
0000
0001
0000
0000
0000
,
1000
0000
0100
0000
1000
0000
0010
0000
,
0001
0000
0010
0000
0010
0000
0001
0000
,
0001
0000
0100
0000
0100
0000
0001
0000
,
0001
0000
0100
0000
0100
0000
0001
0000
,
0001
0000
0100
0000
0100
0000
0001
0000
,
1000
0000
0100
0000
1000
0000
0010
0000
,
0001
0000
0010
0000
0001
0000
0100
0000
,
1000
0000
0110
0000
0001
0000
0000
0000
,
1000
0000
0100
0000
1000
0000
0010
0000
,
0001
0000
0010
0000
0010
0000
0001
0000
,
1000
0000
0100
0000
1000
0000
0010
0000
,
0001
0000
0010
0000
0010
0000
0001
0000
,
1000
0000
0010
0000
0010
0000
1000
0000
,
1000
0000
0100
0000
1000
0000
0010
0000
,
0001
0000
0010
0000
0010
0000
0001
0000
,
1000
0000
0000
0000
0010
0000
0100
0100
,
1000
0000
0100
0000
1000
0000
0010
0000
,
0001
0000
0010
0000
0010
0000
0001
0000
,
0001
0000
0100
0000
0100
0000
0001
0000
,
1000
0000
0010
0000
0010
0000
1000
0000
,
0001
0000
0010
0000
0010
0000
0001
0000
,
1000
0000
0010
0000
0010
0000
1000
0000
,
0001
0000
0100
0000
0100
0000
0001
0000
,
1000
0000
1000
0000
1000
0000
0000
0000
,
0001
0000
0010
0000
0010
0000
0001
0000
,
0001
0000
0100
0000
0100
0000
0001
0000
,
1000
0000
0000
0000
0100
0000
1000
0000
,
0001
0000
0010
0000
0010
0000
0001
0000
,
1000
0000
0100
0000
0100
0000
1000
0000
,
0001
0000
0010
0000
0010
0000
0001
0000
,
1000
0000
0100
0000
0100
0000
1000
0000
,
0001
0000
0010
0000
0010
0000
0001
0000
,
1000
0000
0000
0000
0100
0000
1000
0000
,
0001
0000
0010
0000
0010
0000
0001
0000
,
1000
0000
0000
0000
0100
0000
1000
0000
,
1000
0000
0000
0000
0010
0000
1000
0000
,
1000
0000
0000
0000
0010
0000
1000
0000
,
0001
0000
0010
0000
0010
0000
0001
0000
,
1000
0000
0000
0000
0100
0000
1000
0000
,
0001
0000
0000
0000
0100
0000
0001
0000
,
0001
0000
0010
0000
0010
0000
0001
0000
,
1000
0000
0100
0000
1000
0000
0010
0000
,
0001
0000
0010
0000
0010
0000
0001
0000
,
0001
0000
0010
0000
0010
0000
0001
0000
,
1000
0000
0100
0000
1000
0000
0010
0000
,
0001
0000
0010
0000
0010
0000
0001
0000
,
0001
0000
0100
0000
0100
0000
0001
0000
,
0001
0000
0100
0000
0001
0000
0000
0000
,
1000
0000
1000
0000
1000
0000
0000
0000
,
0000
0001
0010
0000
0010
0000
0000
0000
,
0000
1000
0010
0000
0010
0000
0000
0000
,
0000
0000
1000
0010
0100
0000
0000
0000
,
0000
0001
0010
0000
0010
0000
0000
0000
,
0000
0000
0000
0000
1000
0100
0100
0000
,
1000
0000
1000
0000
1000
0000
0000
0000
,
1000
0000
0110
0000
0001
0000
0000
0000
,
0000
0000
0000
0000
1000
0000
1000
0000
,
0001
0000
0000
0000
0000
0000
0100
0000
,
0000
0000
0000
0000
1000
0000
1000
0000
,
0000
0000
0000
0000
0001
0000
0001
0000
,
0001
0000
0010
0000
0010
0000
0001
0000
,
1000
0000
0100
0000
0100
0000
1000
0000
,
0001
0000
0010
0000
0010
0000
0001
0000
,
1000
0000
0000
0000
0010
0000
0100
0100
,
0001
0000
0100
0000
0010
0000
0100
0000
,
0001
0000
0010
0000
0010
0000
0001
0000
,
1000
0000
0010
0000
0010
0000
1000
0000
,
0001
0000
0100
0000
0100
0000
0001
0000
,
1000
0000
0010
0000
0010
0000
1000
0000
,
0001
0000
0100
0000
0100
0000
0001
0000
,
1000
0000
0100
0000
1000
0000
0010
0000
,
1000
0000
1000
0000
1000
0000
0000
0000
,
0001
0100
2000
0000
0000
0000
0000
0000
,
0000
0000
3000
0000
0000
0000
0001
0010
,
0200
0000
1000
0000
0000
0000
0000
0000
,
0300
0000
0000
0000
1000
0000
1000
0000
,
0000
0001
0002
0000
0000
0000
0000
0000
,
0000
0000
0003
0000
1000
0000
1000
0000
,
0002
0000
1000
0000
0000
0000
0000
0000
,
0000
0000
0000
0000
0000
0000
1003
0000
,
0000
0000
1000
0000
0001
1000
0100
0000
,
1000
0000
0000
0000
0100
0010
0100
0000
,
0001
0000
0100
0000
0001
1000
0000
0000
,
1000
0000
0000
0000
0100
0010
0100
0000
,
0001
0000
0100
0000
0001
1000
0000
0000
,
1000
0000
0000
0000
0100
0010
0100
0000
,
0001
0000
0100
0000
0001
1000
0000
0000
,
0001
0000
0010
0000
0010
0000
0001
0000
,
1000
0000
0100
0000
0100
0000
1000
0000
,
0001
0000
0100
0000
0100
0000
0001
0000
,
1000
0000
0100
0000
0100
0000
1000
0000
,
1000
0000
0010
0000
0010
0000
1000
0000
,
1000
0000
0100
0000
0100
0000
1000
0000
,
0001
0000
0100
0000
0100
0000
0001
0000
,
1000
0000
0100
0000
0100
0000
1000
0000
,
0001
0100
0010
0000
0000
0000
0000
0000
,
1000
0000
0000
0000
0100
0000
1000
0000
,
0001
0000
0010
0000
0010
0000
0001
0000
,
1000
0000
0010
0000
0010
0000
1000
0000
,
0001
0000
0100
0000
0100
0000
0001
0000
,
1000
0000
0100
0000
0100
0000
1000
0000
,
0001
0000
0001
0000
0000
0000
0000
0000
,
0001
0000
0000
0000
0000
0000
0000
0000
,
;
