#VERSION:0.83;
#TITLE:Forever Terror Night;
#SUBTITLE:;
#ARTIST:Dancing Monkeys Project;
#TITLETRANSLIT:;
#SUBTITLETRANSLIT:;
#ARTISTTRANSLIT:;
#GENRE:;
#ORIGIN:;
#CREDIT:Gorilla v1.1.3 (Dancing Monkeys v1.06);
#BANNER:download.png;
#BACKGROUND:p20212385_i_h9_ab.png;
#PREVIEWVID:;
#JACKET:;
#CDIMAGE:;
#DISCIMAGE:;
#LYRICSPATH:;
#CDTITLE:;
#MUSIC:Forever Terror Night DEATH BATTLE.mp3;
#OFFSET:-0.375063;
#SAMPLESTART:55.385483;
#SAMPLELENGTH:12.000000;
#SELECTABLE:YES;
#BPMS:0.000=109.070;
#STOPS:;
#DELAYS:;
#WARPS:;
#TIMESIGNATURES:0.000=4=4;
#TICKCOUNTS:0.000=4;
#COMBOS:0.000=1;
#SPEEDS:0.000=1.000=0.000=0;
#SCROLLS:0.000=1.000;
#FAKES:;
#LABELS:0.000=Song Start;
#BGCHANGES:;
#KEYSOUNDS:;
#ATTACKS:
;

//---------------dance-single - Basic----------------
#NOTEDATA:;
#CHARTNAME:Basic;
#STEPSTYPE:dance-single;
#DESCRIPTION:Basic;
#CHARTSTYLE:;
#DIFFICULTY:Easy;
#METER:3;
#RADARVALUES:0.174402,0.198666,0.000000,0.232806,0.000000,215.000000,215.000000,0.000000,41.000000,0.000000,0.000000,0.000000,0.000000,0.000000,0.174402,0.198666,0.000000,0.232806,0.000000,215.000000,215.000000,0.000000,41.000000,0.000000,0.000000,0.000000,0.000000,0.000000;
#CREDIT:Basic;
#NOTES:
// measure 0
0000
0000
0000
0000
,  // measure 1
0000
0000
0002
0000
,  // measure 2
0000
0000
0000
0003
,  // measure 3
0000
0000
0100
0001
,  // measure 4
1000
0001
0001
0100
,  // measure 5
1000
0001
0001
0010
,  // measure 6
1000
0001
0001
0100
,  // measure 7
0001
0100
0010
1000
,  // measure 8
1000
0001
0001
0100
,  // measure 9
1000
0001
0001
0100
,  // measure 10
1000
0001
0001
0100
,  // measure 11
1000
0010
1000
1000
,  // measure 12
2000
0000
0000
3000
,  // measure 13
1000
0200
0000
0300
,  // measure 14
1000
0200
0000
0300
,  // measure 15
0001
0100
0010
1000
,  // measure 16
1000
0001
0001
0100
,  // measure 17
0001
1000
1000
0100
,  // measure 18
0001
1000
0100
0010
,  // measure 19
0002
0000
0003
0100
,  // measure 20
0001
0020
0000
0030
,  // measure 21
1000
0001
0001
0100
,  // measure 22
0001
0100
0010
1000
,  // measure 23
1000
0001
0001
0100
,  // measure 24
0001
1000
0100
0010
,  // measure 25
0001
0010
0001
2000
,  // measure 26
0000
0000
3000
0002
,  // measure 27
0000
0003
0001
1000
,  // measure 28
0002
0000
0003
1000
,  // measure 29
1000
0001
0001
0100
,  // measure 30
0001
1000
1000
0010
,  // measure 31
1000
0001
0001
0010
,  // measure 32
1000
0001
0001
0100
,  // measure 33
1000
0001
0001
0100
,  // measure 34
0001
1000
1000
0010
,  // measure 35
0001
1000
1000
0100
,  // measure 36
0001
1000
0100
0010
,  // measure 37
1000
0010
2000
0000
,  // measure 38
0000
3000
0020
0000
,  // measure 39
0030
0200
0000
0300
,  // measure 40
0002
0000
0003
2000
,  // measure 41
0000
3000
0200
0000
,  // measure 42
0300
0020
0000
0030
,  // measure 43
2000
0000
3000
0200
,  // measure 44
0000
0300
0020
0000
,  // measure 45
0030
2000
0000
3000
,  // measure 46
0002
0000
0003
0200
,  // measure 47
0000
0300
2000
0000
,  // measure 48
3000
0002
0000
0003
,  // measure 49
0020
0000
0030
0100
,  // measure 50
1000
0001
0001
0100
,  // measure 51
0001
1000
1000
0010
,  // measure 52
1000
0100
0001
0010
,  // measure 53
0001
1000
0100
0010
,  // measure 54
1000
0001
0010
0100
,  // measure 55
0001
0010
0001
0100
,  // measure 56
0001
1000
0100
0010
,  // measure 57
1000
0100
1000
0020
,  // measure 58
0000
0000
0000
0000
,  // measure 59
0000
0000
0030
0000
,  // measure 60
0000
2000
0000
3002
,  // measure 61
0000
2003
0000
3002
,  // measure 62
0000
0203
0000
0302
,  // measure 63
0000
2003
0000
3020
,  // measure 64
0000
0030
0200
0000
,  // measure 65
0302
0000
0203
0000
,  // measure 66
0302
0000
2003
0000
,  // measure 67
3020
0000
0030
0000
,  // measure 68
1000
0010
0001
0100
,  // measure 69
1000
0100
0001
0010
,  // measure 70
0001
0100
1000
0010
,  // measure 71
0001
1000
0100
0010
,  // measure 72
1000
0100
0001
0100
,  // measure 73
0001
1000
1000
0010
,  // measure 74
0001
1000
0100
0010
,  // measure 75
1000
0100
1000
0002
,  // measure 76
0000
0000
0000
0000
,  // measure 77
0000
0000
0003
0010
;
