#VERSION:0.83;
#TITLE:Find Your Flame;
#SUBTITLE:;
#ARTIST:Dancing Monkeys Project;
#TITLETRANSLIT:;
#SUBTITLETRANSLIT:;
#ARTISTTRANSLIT:;
#GENRE:;
#ORIGIN:;
#CREDIT:Gorilla v1.1.3 (Dancing Monkeys v1.06);
#BANNER:header (1).png;
#BACKGROUND:news_09_thumb.png;
#PREVIEWVID:;
#JACKET:;
#CDIMAGE:;
#DISCIMAGE:;
#LYRICSPATH:;
#CDTITLE:;
#MUSIC:onlymp3.to - Find Your Flame feat. Kellin Quinn Tyler Smyth -4gzIL8_G4Xs-192k-1706590214.mp3;
#OFFSET:-0.658208;
#SAMPLESTART:40.658207;
#SAMPLELENGTH:12.000000;
#SELECTABLE:YES;
#BPMS:0.000=150.000;
#STOPS:;
#DELAYS:;
#WARPS:;
#TIMESIGNATURES:0.000=4=4;
#TICKCOUNTS:0.000=4;
#COMBOS:0.000=1;
#SPEEDS:0.000=1.000=0.000=0,
128.000=2.500=0.000=0,
336.000=2.800=0.000=0;
#SCROLLS:0.000=1.000;
#FAKES:;
#LABELS:0.000=Song Start;
#BGCHANGES:;
#KEYSOUNDS:;
#ATTACKS:
;

//---------------dance-single - Basic----------------
#NOTEDATA:;
#CHARTNAME:Basic;
#STEPSTYPE:dance-single;
#DESCRIPTION:Basic;
#CHARTSTYLE:;
#DIFFICULTY:Easy;
#METER:4;
#RADARVALUES:0.263254,0.296591,0.040148,0.192709,0.000000,459.000000,449.000000,10.000000,48.000000,0.000000,0.000000,0.000000,0.000000,0.000000,0.263254,0.296591,0.040148,0.192709,0.000000,459.000000,449.000000,10.000000,48.000000,0.000000,0.000000,0.000000,0.000000,0.000000;
#CREDIT:Basic;
#NOTES:
2002
0000
0000
0000
,
0000
3003
0100
0002
,
0000
0000
0000
0003
,
2000
0000
0000
0000
,
3002
0000
0000
0000
,
0000
0003
0100
2000
,
0000
0000
0000
3000
,
0002
0000
0000
0000
,
0003
1000
0001
1000
,
0001
1000
0100
0001
,
1000
0001
0010
0100
,
0001
1000
0100
0010
,
0100
1000
0100
0001
,
0100
1000
0010
0100
,
1000
0001
0010
0100
,
1000
0100
0010
1000
,
0002
0000
0003
2000
,
0000
3000
0200
0000
,
0300
0002
0000
0003
,
2000
0000
3000
0002
,
0000
0003
2000
0000
,
0000
3000
0200
0000
,
0000
0300
0002
0000
,
0000
0003
1000
0001
,
0010
1000
0100
0001
,
0100
1000
0010
1000
,
0001
0010
0100
1000
,
0010
1000
0100
0010
,
0100
1000
0100
0001
,
0100
1000
0010
0100
,
0010
1000
0010
0100
,
0010
0100
0010
0100
,
1001
0010
0001
0100
,
1000
0010
0001
0100
,
0001
0100
1000
0010
,
1000
0100
0001
0010
,
1000
0100
0001
0100
,
0001
0010
0100
0001
,
2002
0000
0000
0000
,
0000
0000
0000
3003
,
0010
0100
0010
1000
,
0001
0100
0001
0010
,
1000
0001
1000
0010
,
1000
0001
0010
1000
,
0010
1000
0001
0100
,
0001
1000
0100
0001
,
2002
0000
0000
0000
,
0000
0000
3003
2002
,
0000
3003
0010
0100
,
0001
1000
0100
0001
,
1000
0010
1000
0001
,
1000
0100
0001
0100
,
2002
0000
0000
0000
,
0000
0000
0000
3003
,
0200
0000
0000
0000
,
0300
0000
0020
0030
,
2000
0000
0000
3000
,
0002
0000
0003
0010
,
2002
0000
0000
0000
,
0000
0000
0000
3003
,
0010
1000
0100
1000
,
0001
0010
0100
1000
,
0100
0001
1000
0001
,
0010
1000
0001
1000
,
0100
0001
0010
0100
,
1000
0001
0100
0001
,
0100
1000
0100
1000
,
0001
0010
0100
1000
,
1001
0010
0100
0010
,
1000
0001
0100
1000
,
0001
1000
0100
0001
,
0010
1000
0100
1000
,
0001
1000
0100
0010
,
0001
1000
0010
0100
,
0001
1000
0100
0001
,
1000
0010
0100
1000
,
0001
0010
0100
1000
,
0001
0100
0001
0100
,
0001
0100
0010
0010
,
0100
0100
1000
0001
,
0001
0010
0001
1000
,
1000
0001
0001
0010
,
1000
0001
0100
0010
,
1000
0010
0100
0001
,
1001
0010
1000
0100
,
1000
0010
0001
0100
,
1000
0010
0001
0100
,
1000
0010
1000
0001
,
0100
0001
1000
0100
,
0001
0010
0100
0001
,
1000
0010
1000
0001
,
0100
1000
0010
0001
,
0100
0010
1000
0100
,
0001
0100
0001
0010
,
1000
0010
1000
0010
,
0100
1000
0010
0001
,
1000
0100
0001
0100
,
0001
1000
0100
0001
,
1000
0010
1000
0100
,
0001
0010
0100
0001
,
1000
1000
0001
0100
,
1000
1000
0001
0010
,
1000
1000
0001
0010
,
0001
1000
0100
0001
,
0010
1000
0001
0100
,
0001
0010
0100
0001
,
1000
0010
1000
0001
,
1000
0100
0010
0100
,
0001
0100
0010
1000
,
0001
0100
0001
0010
,
1000
0001
1000
0010
,
0001
1000
0010
0100
,
1000
0010
1000
0100
,
0001
0010
0100
0001
,
1000
0010
1000
0010
,
0001
1000
0001
0010
,
0100
1000
0001
0100
,
1000
0010
0001
0100
,
0010
1000
0100
0010
,
1000
0010
0100
0001
,
0100
1000
0010
0100
,
1000
0010
0001
0100
,
1000
0100
0010
0001
,
0100
1000
0010
0001
,
2000
0000
0000
0000
,
3000
0002
0000
0000
,
0000
0003
0010
0100
,
0001
1000
0010
1000
,
0100
0001
1000
0100
,
0001
0010
0100
1000
,
0001
0100
0010
0100
,
1000
0001
0010
0001
,
2000
0000
0000
3000
,
0002
0000
0000
0003
,
2000
0000
0000
3000
,
0002
0000
0000
0003
,
2000
0000
0000
3000
,
0002
0000
0000
0003
,
2000
0000
0000
3000
,
0002
0000
0000
0003
,
2000
0000
0000
3000
,
0002
0000
0000
0003
,
2000
0000
0000
3000
,
0002
0000
0000
0003
,
2000
0000
0000
3000
,
0020
0000
0000
0030
,
2002
0000
0000
0000
,
0000
0000
0000
3003
;
