#VERSION:0.83;
#TITLE:Sonic Frontiers - Find Your Flame [Shadow Remix];
#SUBTITLE:;
#ARTIST:Dancing Monkeys Project;
#TITLETRANSLIT:;
#SUBTITLETRANSLIT:;
#ARTISTTRANSLIT:;
#GENRE:;
#ORIGIN:;
#CREDIT:Gorilla v1.1.3 (Dancing Monkeys v1.06);
#BANNER:;
#BACKGROUND:;
#PREVIEWVID:;
#JACKET:;
#CDIMAGE:;
#DISCIMAGE:;
#LYRICSPATH:;
#CDTITLE:;
#MUSIC:Sonic Frontiers - Find Your Flame [Hikouma Shadow Mix].mp3;
#OFFSET:-0.451156;
#SAMPLESTART:40.451157;
#SAMPLELENGTH:12.000000;
#SELECTABLE:YES;
#BPMS:0.000=150.000;
#STOPS:;
#DELAYS:0.000=5.000;
#WARPS:;
#TIMESIGNATURES:0.000=4=4;
#TICKCOUNTS:0.000=4;
#COMBOS:0.000=1;
#SPEEDS:0.000=1.000=0.000=0;
#SCROLLS:0.000=1.000;
#FAKES:;
#LABELS:0.000=Song Start;
#BGCHANGES:;
#KEYSOUNDS:;
#ATTACKS:
;

//---------------dance-single - Basic----------------
#NOTEDATA:;
#CHARTNAME:Basic;
#STEPSTYPE:dance-single;
#DESCRIPTION:Basic;
#CHARTSTYLE:;
#DIFFICULTY:Easy;
#METER:3;
#RADARVALUES:0.115054,0.192767,0.000000,0.135599,0.000000,196.000000,196.000000,0.000000,33.000000,0.000000,0.000000,0.000000,0.000000,0.000000,0.115054,0.192767,0.000000,0.135599,0.000000,196.000000,196.000000,0.000000,33.000000,0.000000,0.000000,0.000000,0.000000,0.000000;
#CREDIT:Basic;
#NOTES:
0000
0000
0000
2000
,
0000
3000
0020
0000
,
0030
0000
0200
0000
,
0000
0300
2000
0000
,
0000
3000
0020
0000
,
0000
0030
0200
0000
,
0300
0000
2000
0000
,
0000
3000
0000
0010
,
0000
0100
0002
0000
,
0003
0000
2000
0000
,
3000
0000
0020
0000
,
0000
0030
0200
0000
,
0000
0000
0300
0000
,
1000
0000
0010
0000
,
0100
0000
0002
0000
,
0000
0000
0000
0003
,
0000
0000
1000
0000
,
0000
0000
0010
0000
,
0000
0000
0001
0000
,
0000
0000
0010
0000
,
0000
0000
0100
0000
,
0000
0000
0100
0000
,
0000
0000
0010
0000
,
0000
0000
0100
0000
,
0001
0000
1000
0100
,
0001
0010
0100
1000
,
0010
0001
0100
1000
,
0010
0100
0010
1000
,
0001
0100
0010
0001
,
1000
0010
1000
0100
,
0001
0100
0010
0001
,
1000
0010
1000
0100
,
0001
0100
0000
2000
,
0000
0000
0000
0000
,
0000
3000
0000
0000
,
0010
0000
0200
0000
,
0300
0000
0020
0000
,
0000
0000
0000
0000
,
0000
0030
0000
0100
,
0000
0000
0000
0100
,
0000
0000
0100
1000
,
1000
0001
1000
0010
,
0001
0001
1000
1000
,
0010
0001
0010
0100
,
0010
0001
0100
1000
,
0010
0001
0100
1000
,
0001
0010
0100
0001
,
0001
0010
0010
1000
,
1000
0010
0010
0002
,
0000
0000
0003
0200
,
0000
0000
0300
0010
,
0001
0001
1000
0010
,
1000
0100
0000
0010
,
0100
0001
1000
1000
,
0100
1000
0001
2000
,
0000
0000
0000
0000
,
3000
0000
0000
1000
,
0001
1000
0010
0100
,
0001
1000
0001
0010
,
1000
1000
0010
0001
,
1000
0000
0000
0001
,
0001
0001
0100
1000
,
0001
0100
0010
0001
,
0001
1000
0010
0100
,
1000
1000
0010
0002
,
0000
0000
0000
0000
,
0000
0000
0003
2000
,
0000
0000
0000
0000
,
0000
3000
0000
0200
,
0000
2300
0000
3020
,
0000
0032
0000
0203
,
0000
0300
0000
0000
,
0000
0000
0000
0000
,
0001
0010
0100
1000
,
0100
1000
0010
0100
,
1000
0100
0010
0001
,
0001
1000
0010
2000
,
0000
0000
0000
0000
,
0000
0000
3000
0020
,
0000
0000
0000
0000
,
0000
0000
0000
0230
,
0000
0000
0000
0000
,
0300
0020
0000
0000
,
0000
0000
0030
0000
,
0000
0000
0002
0000
,
0000
0000
0003
0000
,
0000
0000
0010
0000
,
0002
0000
0000
0000
,
0003
0000
0000
0010
,
0000
0000
0000
0100
,
0000
0000
1000
0000
,
0000
0010
0000
0000
,
0100
0000
0000
0010
,
0000
0000
0001
0000
,
0000
0010
0000
0001
,
0000
1000
0000
0200
,
0000
0000
0000
0000
,
0300
0000
1000
0000
,
0000
0100
0000
0000
,
0010
0010
0000
0001
,
0000
1000
0000
0002
,
0000
0000
0003
0000
,
0010
0000
0000
0100
,
0000
0000
0010
0000
,
0000
0100
0000
0000
;
