#VERSION:0.83;
#TITLE:Find You;
#SUBTITLE:;
#ARTIST:Zedd;
#TITLETRANSLIT:;
#SUBTITLETRANSLIT:;
#ARTISTTRANSLIT:;
#GENRE:;
#ORIGIN:;
#CREDIT:Gorilla v1.1.3 (Dancing Monkeys v1.06);
#BANNER:f1860f848ce5f5b59c2e93a39145e44e.png;
#BACKGROUND:download.png;
#PREVIEWVID:;
#JACKET:;
#CDIMAGE:;
#DISCIMAGE:;
#LYRICSPATH:;
#CDTITLE:;
#MUSIC:onlymp3.to - find_you_ft._matthew_koma___miriam_bryant-b-s15HjJ8l4-192k-1696862370.mp3;
#OFFSET:-0.394604;
#SAMPLESTART:49.144600;
#SAMPLELENGTH:12.000000;
#SELECTABLE:YES;
#BPMS:0.000=128.000;
#STOPS:;
#DELAYS:;
#WARPS:;
#TIMESIGNATURES:0.000=4=4;
#TICKCOUNTS:0.000=4;
#COMBOS:0.000=1;
#SPEEDS:0.000=1.000=0.000=0;
#SCROLLS:0.000=1.000;
#FAKES:;
#LABELS:0.000=Song Start;
#BGCHANGES:;
#KEYSOUNDS:;
#ATTACKS:
;

//---------------dance-single - Basic----------------
#NOTEDATA:;
#CHARTNAME:Basic;
#STEPSTYPE:dance-single;
#DESCRIPTION:Basic;
#CHARTSTYLE:;
#DIFFICULTY:Easy;
#METER:5;
#RADARVALUES:0.123715,0.123715,0.000000,0.038066,0.000000,91.000000,91.000000,0.000000,4.000000,0.000000,0.000000,0.000000,0.000000,0.000000,0.123715,0.123715,0.000000,0.038066,0.000000,91.000000,91.000000,0.000000,4.000000,0.000000,0.000000,0.000000,0.000000,0.000000;
#CREDIT:Basic;
#NOTES:
// measure 0
0001
0000
0000
0000
,  // measure 1
0000
0000
0200
0000
,  // measure 2
0000
0000
0300
0001
,  // measure 3
0000
0000
0000
1000
,  // measure 4
0000
0000
0100
0000
,  // measure 5
1000
0000
0100
0000
,  // measure 6
0001
0000
0100
0000
,  // measure 7
0020
0000
0000
0000
,  // measure 8
0000
0000
0030
0001
,  // measure 9
0200
0000
0000
0000
,  // measure 10
0000
0000
0300
0001
,  // measure 11
0000
0001
0000
1000
,  // measure 12
0000
0000
0000
1000
,  // measure 13
0000
0000
0000
0001
,  // measure 14
0000
0000
0000
1000
,  // measure 15
0000
0000
0001
0000
,  // measure 16
0100
0000
1000
0000
,  // measure 17
0010
0000
0100
0000
,  // measure 18
2000
3000
0000
0010
,  // measure 19
0000
1000
0000
0010
,  // measure 20
0000
1000
0000
0001
,  // measure 21
0000
1000
0000
0010
,  // measure 22
0000
0001
0000
0010
,  // measure 23
0000
1000
0000
0100
,  // measure 24
0000
0010
0000
0100
,  // measure 25
0000
0000
0001
0000
,  // measure 26
1000
0000
0001
0000
,  // measure 27
1000
0000
0001
0000
,  // measure 28
1000
0000
0010
0000
,  // measure 29
0001
0000
1000
0000
,  // measure 30
0001
0000
1000
0000
,  // measure 31
0001
0000
1000
0000
,  // measure 32
0010
0000
0001
0000
,  // measure 33
0100
0000
1000
0000
,  // measure 34
0010
0000
0001
0000
,  // measure 35
1000
0000
0010
0000
,  // measure 36
1000
0000
0100
0000
,  // measure 37
0001
0000
0010
0000
,  // measure 38
1000
0000
0100
0000
,  // measure 39
1000
0000
0010
0000
,  // measure 40
1000
0000
0100
0000
,  // measure 41
1000
0000
0010
0000
,  // measure 42
1000
0000
0100
0000
,  // measure 43
1000
0000
0010
0000
,  // measure 44
1000
0000
0100
0000
,  // measure 45
1000
0000
0010
0000
,  // measure 46
0100
0000
0010
0000
,  // measure 47
0001
0000
0100
0000
,  // measure 48
0001
0000
0010
0000
,  // measure 49
0100
0000
0001
0000
,  // measure 50
0100
0000
1000
0000
,  // measure 51
0100
0000
1000
0000
,  // measure 52
0010
0000
0000
0000
;
