#VERSION:0.83;
#TITLE:hollaback girl X feel good;
#SUBTITLE:;
#ARTIST:Unknown artist;
#TITLETRANSLIT:;
#SUBTITLETRANSLIT:;
#ARTISTTRANSLIT:;
#GENRE:;
#ORIGIN:;
#CREDIT:;
#BANNER:rmaxresdefault.png;
#BACKGROUND:maxresdefault.png;
#PREVIEWVID:;
#JACKET:;
#CDIMAGE:;
#DISCIMAGE:;
#LYRICSPATH:;
#CDTITLE:;
#MUSIC:[Dj Hero Soundtrack - CD Quality] Hollaback Girl vs Feel good Inc. - Gwen Stefani vs Gorillaz.mp3;
#OFFSET:0.000000;
#SAMPLESTART:100.000000;
#SAMPLELENGTH:12.000000;
#SELECTABLE:YES;
#BPMS:0.000=135.000;
#STOPS:;
#DELAYS:;
#WARPS:;
#TIMESIGNATURES:0.000=4=4;
#TICKCOUNTS:0.000=4;
#COMBOS:0.000=1;
#SPEEDS:0.000=1.400=0.000=0;
#SCROLLS:0.000=1.000;
#FAKES:;
#LABELS:0.000=Song Start;
#BGCHANGES:;
#KEYSOUNDS:;
#ATTACKS:
;

//---------------dance-single - ----------------
#NOTEDATA:;
#CHARTNAME:;
#STEPSTYPE:dance-single;
#DESCRIPTION:;
#CHARTSTYLE:;
#DIFFICULTY:Easy;
#METER:1;
#RADARVALUES:0.207933,0.229246,0.000000,0.082389,0.000000,265.000000,265.000000,0.000000,15.000000,0.000000,0.000000,0.000000,0.000000,0.000000,0.207933,0.229246,0.000000,0.082389,0.000000,265.000000,265.000000,0.000000,15.000000,0.000000,0.000000,0.000000,0.000000,0.000000;
#CREDIT:;
#NOTES:
// measure 0
0000
1000
1000
1000
,  // measure 1
0010
0100
0100
0100
,  // measure 2
0001
1000
1000
1000
,  // measure 3
0010
0001
0001
0001
,  // measure 4
1000
0010
0010
0010
,  // measure 5
1000
0010
0010
0010
,  // measure 6
1000
0001
0001
0001
,  // measure 7
0001
0000
0000
1000
0000
0001
0000
0000
,  // measure 8
0000
0000
1000
0100
,  // measure 9
0010
0001
0010
0100
,  // measure 10
0000
0000
0010
0000
,  // measure 11
0010
0000
1000
1000
,  // measure 12
0000
0000
0010
1000
,  // measure 13
1000
1000
0001
0001
,  // measure 14
0001
0000
0000
0000
0000
1000
0000
1000
,  // measure 15
0000
1000
0000
0010
0000
0010
0000
0010
,  // measure 16
0000
0010
0000
0000
0000
0000
0100
0000
,  // measure 17
0000
0010
0000
1000
,  // measure 18
1000
1000
1000
0010
,  // measure 19
0010
0100
0100
0001
,  // measure 20
0001
0000
1000
0000
1000
0000
0000
1000
,  // measure 21
0000
0000
0000
1000
0000
0000
0000
0010
,  // measure 22
0000
0100
0000
0100
0000
0100
0000
0000
,  // measure 23
0001
0001
0010
1000
,  // measure 24
1000
0010
0010
0000
,  // measure 25
1000
0000
0010
0000
,  // measure 26
0100
0000
0001
0000
,  // measure 27
1000
0000
0010
0000
,  // measure 28
0000
0100
0000
0001
0000
1000
0000
0000
,  // measure 29
0010
0000
0000
0000
0000
0100
0000
0100
,  // measure 30
0000
0000
0001
0000
0000
0100
0000
0000
,  // measure 31
0000
0000
0000
0010
0000
0000
0000
1000
,  // measure 32
0000
0000
0010
0010
,  // measure 33
0100
0000
0001
0000
,  // measure 34
0010
0000
1000
0000
,  // measure 35
0001
0000
1000
0000
,  // measure 36
0010
0100
0002
0000
,  // measure 37
0000
0000
0003
0000
0100
0000
0000
0010
,  // measure 38
0000
1000
0000
1000
0000
1000
0000
0000
,  // measure 39
0001
0000
0000
0010
0000
0010
0000
0100
,  // measure 40
0000
0000
2000
0000
,  // measure 41
0000
0000
3000
0000
0000
0010
0000
0010
,  // measure 42
0000
0010
0000
0010
0000
1000
0000
0010
,  // measure 43
0000
0100
0000
0100
0000
0200
0000
0000
,  // measure 44
0000
0000
0000
0300
,  // measure 45
0000
1000
0000
0000
0010
0000
0000
0100
,  // measure 46
0000
0100
0000
0001
0000
0001
0000
0010
,  // measure 47
0000
0010
0000
1000
0000
1000
0000
0020
,  // measure 48
0000
0000
0000
0000
,  // measure 49
0000
0000
0000
0030
,  // measure 50
1000
0001
1000
0010
,  // measure 51
0000
0000
0020
0000
,  // measure 52
0030
0010
1000
1000
,  // measure 53
1000
0000
0000
0010
0000
0010
0000
0000
,  // measure 54
0000
1000
0000
1000
0000
0010
0000
0010
,  // measure 55
0000
0010
0000
0100
0000
0200
0000
0000
,  // measure 56
0000
0000
0000
0000
,  // measure 57
0300
0000
0100
0100
,  // measure 58
0100
0001
0100
0010
,  // measure 59
1000
0010
1000
0020
,  // measure 60
0030
0010
0010
1000
,  // measure 61
1000
1000
0010
0010
,  // measure 62
0020
0030
1000
1000
,  // measure 63
0010
0010
1000
1000
,  // measure 64
0001
0001
0100
0100
,  // measure 65
0001
0001
1000
1000
,  // measure 66
2000
0000
0000
0000
,  // measure 67
0000
0000
0000
3000
,  // measure 68
0010
0000
0000
1000
,  // measure 69
0001
1000
0001
1000
,  // measure 70
0001
1000
0001
1000
,  // measure 71
0001
1000
1000
1000
,  // measure 72
0010
0010
0000
0010
,  // measure 73
1000
0010
0100
0001
,  // measure 74
0000
0010
0000
0010
0000
0100
0000
0001
,  // measure 75
0000
0010
0000
1000
0000
0010
0000
0000
,  // measure 76
0200
0000
0000
0000
,  // measure 77
0300
0010
0001
0010
,  // measure 78
0100
1000
0020
0000
,  // measure 79
0000
0030
0100
0000
,  // measure 80
0001
0000
0000
1000
0000
0001
0000
1000
,  // measure 81
0000
0001
0000
0000
1000
0000
0100
0000
,  // measure 82
0100
0002
0003
0000
,  // measure 83
0010
1000
0010
0010
,  // measure 84
0000
0200
0000
0000
,  // measure 85
0000
0300
1000
0010
,  // measure 86
0100
0001
1000
0010
,  // measure 87
0000
0001
0010
0000
,  // measure 88
0100
0100
0001
0010
,  // measure 89
2000
3000
0001
0001
,  // measure 90
0010
0100
0001
0010
,  // measure 91
2000
3000
0010
0010
,  // measure 92
0010
1000
1000
1000
;
