#TITLE:Faster N Harder;
#SUBTITLE:;
#ARTIST:6arelyhuman;
#TITLETRANSLIT:;
#SUBTITLETRANSLIT:;
#ARTISTTRANSLIT:;
#GENRE:;
#CREDIT:Gorilla v1.1.3 (Dancing Monkeys v1.06);
#BANNER:emo-guy-nightcore-ptuqz3w531l2l46k.png;
#BACKGROUND:hq720.png;
#LYRICSPATH:;
#CDTITLE:;
#MUSIC:6arelyhuman - Faster N Harder (Lyrics).mp3;
#OFFSET:-0.069229;
#SAMPLESTART:42.937977;
#SAMPLELENGTH:12.000000;
#SELECTABLE:YES;
#BPMS:0.000000=139.962097
;
#STOPS:
;
#BGCHANGES:;
#KEYSOUNDS:;
#ATTACKS:;

//---------------dance-single - Basic----------------
#NOTES:
     dance-single:
     Basic:
     Easy:
     3:
     0.232414,0.223163,0.000000,0.042813,0.000000,228.000000,228.000000,0.000000,6.000000,0.000000,0.000000,0.232414,0.223163,0.000000,0.042813,0.000000,228.000000,228.000000,0.000000,6.000000,0.000000,0.000000:
// measure 0
0002
0000
0000
0000
,  // measure 1
0000
0000
0003
0000
,  // measure 2
2000
0000
0000
0000
,  // measure 3
0000
0000
3000
0000
,  // measure 4
1000
0000
0010
0000
,  // measure 5
0001
0000
0100
0000
,  // measure 6
1000
0000
0010
0000
,  // measure 7
0001
0000
1000
0000
,  // measure 8
1000
1000
1000
0000
,  // measure 9
0001
0001
0001
0000
,  // measure 10
0010
0010
0010
0000
,  // measure 11
0100
0100
0100
0000
,  // measure 12
0001
0001
0100
0100
,  // measure 13
1000
1000
0100
0100
,  // measure 14
0001
0001
0100
0100
,  // measure 15
1000
1000
0000
0000
,  // measure 16
0100
0100
0001
0001
,  // measure 17
0010
0010
0100
0100
,  // measure 18
0001
0001
1000
1000
,  // measure 19
0010
0010
0100
0100
,  // measure 20
1000
1000
0010
0010
,  // measure 21
0001
0001
0010
0010
,  // measure 22
1000
1000
0100
0100
,  // measure 23
1000
1000
0010
0010
,  // measure 24
1000
1000
0100
0100
,  // measure 25
1000
1000
0100
0100
,  // measure 26
0001
0010
0100
1000
,  // measure 27
0100
0010
0001
0010
,  // measure 28
0100
1000
0100
0010
,  // measure 29
0001
0010
0100
1000
,  // measure 30
0100
0010
0001
0010
,  // measure 31
0100
1000
1000
0000
,  // measure 32
0200
0000
0300
0000
,  // measure 33
0002
0000
0000
0003
,  // measure 34
2000
0000
0000
3000
,  // measure 35
0020
0000
0000
0030
,  // measure 36
0000
0001
0001
0010
,  // measure 37
0010
1000
1000
0100
,  // measure 38
0100
1000
1000
0010
,  // measure 39
0010
0000
0000
0000
,  // measure 40
0000
0100
0100
0001
,  // measure 41
0001
0100
0100
0010
,  // measure 42
0010
1000
1000
0100
,  // measure 43
0100
1000
1000
0010
,  // measure 44
0010
1000
1000
0010
,  // measure 45
0010
0001
0001
0010
,  // measure 46
0010
0100
0100
1000
,  // measure 47
1000
1000
0000
0000
,  // measure 48
1000
0100
0010
0001
,  // measure 49
1000
0100
0010
0001
,  // measure 50
0001
0010
0100
1000
,  // measure 51
0100
0010
0001
0010
,  // measure 52
0100
1000
0100
0010
,  // measure 53
0001
0100
0100
1000
,  // measure 54
1000
0010
0010
0001
,  // measure 55
0001
0001
0000
0000
,  // measure 56
0000
0100
0100
0001
,  // measure 57
0001
0010
0010
0001
,  // measure 58
0001
0010
0010
1000
,  // measure 59
1000
0010
0010
1000
,  // measure 60
1000
0100
0100
1000
,  // measure 61
1000
0010
0010
1000
,  // measure 62
1000
0100
0100
0001
,  // measure 63
0001
0010
0010
1000
,  // measure 64
1000
0001
0001
0100
,  // measure 65
0100
0010
0010
1000
,  // measure 66
1000
0010
0010
1000
,  // measure 67
1000
0010
0010
0001
,  // measure 68
0001
0010
0010
1000
,  // measure 69
1000
1000
1000
0000
;
