#TITLE:Fall Out Boy vs Pokemon Theme - Gotta Catch The Mmrs (Gustav Krantz Mashup);
#ARTIST:Dancing Monkeys Project;
#OFFSET:-0.662646;
#BPMS:0=154.997040;
#MUSIC:Fall Out Boy vs Pokemon Theme - Gotta Catch The Mmrs (Gustav Krantz Mashup).mp3;
#CREDIT:Gorilla v1.1.3 (Dancing Monkeys v1.06);
#STOPS:15.000000=1.548417; // --- Arrows ---
#NOTES:
     dance-single:
     Basic:
     easy:
     3:
     :
1000
0000
0000
0000
0002
0000
0000
0000
,
0000
0000
0000
0000
0000
0000
0000
0000
,
0003
0000
0001
0000
0100
0000
0000
0000
,
0000
0000
0001
0000
1000
0000
0000
0000
,
0000
0000
0000
0000
0001
0000
0000
0000
,
1000
0000
0000
0000
0000
0000
0100
0000
,
0000
0000
0001
0000
0010
0000
0000
0000
,
0000
0000
0000
0000
0000
0000
1000
0000
,
1000
0000
0000
0000
0000
0000
0010
0000
,
0000
0000
1000
0000
0010
0000
0000
0000
,
0000
0000
0000
0000
0001
0000
1000
0000
,
1000
0000
0000
0000
0010
0000
0000
0000
,
0000
0000
0000
0000
1000
0000
0010
0000
,
0000
0000
0000
0000
1000
0000
0010
0000
,
0000
0000
0001
0000
0000
0000
0010
0000
,
0000
0000
0000
0000
0001
0000
1000
0000
,
0000
0000
0000
0000
1000
0000
0001
0000
,
0000
0000
1000
0000
0010
0000
0000
0000
,
0001
0000
0000
0000
0100
0000
0010
0000
,
0000
0000
0000
0000
0001
0000
1000
0000
,
0000
0000
0001
0000
1000
0000
0100
0000
,
0001
0000
0000
0000
1000
0000
0010
0000
,
0000
0000
0001
0000
1000
0000
0010
0000
,
0000
0000
1000
0000
0100
0000
0010
0000
,
0000
0000
1000
0000
0001
0000
0100
0000
,
0001
0000
0000
0000
1000
0000
0001
0000
,
1000
0000
0010
0000
0010
0000
0000
0000
,
0000
0000
1000
0000
0001
0000
0100
0000
,
0000
0000
0001
0000
1000
0000
0010
0000
,
0000
0000
1000
0000
0001
0000
0010
0000
,
0000
0000
0001
0000
1000
0000
0100
0000
,
0000
0000
0001
0000
1000
0000
0010
0000
,
0000
0000
1000
0000
0001
0000
0100
0000
,
1000
0000
0000
0000
0010
0000
0010
0000
,
0000
0000
0001
0000
1000
0000
0001
0000
,
0000
0000
0001
0000
1000
0000
2000
0000
,
0000
0000
0000
0000
0000
0000
0000
0000
,
0000
0000
0000
0000
3000
0000
1000
0000
,
1000
0000
0000
0000
0000
0000
0010
0000
,
1000
0000
0010
0000
0010
0000
0000
0000
,
1000
0000
0000
0000
0000
0000
0010
0000
,
0001
0000
0000
0000
0001
0000
0000
0000
,
0000
0000
0000
0000
1000
0000
0010
0000
,
0000
0000
0001
0000
1000
0000
0100
0000
,
0000
0000
0000
0000
1000
0000
0010
0000
,
0000
0000
0000
0000
0001
0000
1000
0000
,
0001
0000
0010
0000
0010
0000
0000
0000
,
0000
0000
0000
0000
0001
0000
1000
0000
,
1000
0000
0000
0000
0000
0000
0010
0000
,
0001
0000
0000
0000
0001
0000
0000
0000
,
0000
0000
0000
0000
0001
0000
1000
0000
,
0000
0000
0001
0000
1000
0000
0010
0000
,
0001
0000
0000
0000
0001
0000
0000
0000
,
0000
0000
0000
0000
0001
0000
1000
0000
,
0000
0000
0001
0000
0010
0000
0000
0000
,
0000
0000
0000
0000
0001
0000
1000
0000
,
0000
0000
0000
0000
1000
0000
0001
0000
,
0000
0000
0001
0000
1000
0000
0100
0000
,
0000
0000
0001
0000
1000
0000
0100
0000
,
0000
0000
1000
0000
0001
0000
0100
0000
,
0000
0000
1000
0000
0100
0000
0010
0000
,
1000
0000
0000
0000
0100
0000
1000
0000
,
0001
0000
0000
0000
1000
0000
0001
0000
,
0000
0000
0001
0000
1000
0000
0010
0000
,
0000
0000
1000
0000
0001
0000
0100
0000
,
0000
0000
0001
0000
1000
0000
0010
0000
,
0000
0000
1000
0000
0001
0000
0010
0000
,
0000
0000
1000
0000
0001
0000
0010
0000
,
0000
0000
1000
0000
0100
0000
0010
0000
,
0000
0000
1000
0000
0001
0000
0100
0000
,
1000
0000
0000
0000
0010
0000
0010
0000
,
0000
0000
0001
0000
1000
0000
0010
0000
,
2000
0000
0000
0000
0000
0000
3000
0000
,
1000
0000
0010
0000
0010
0000
0000
0000
,
1000
0000
0000
0000
0000
0000
0010
0000
,
0000
0000
0001
0000
0010
0000
0000
0000
,
0000
0000
0000
0000
0001
0000
1000
0000
,
2000
0000
0000
0000
0000
0000
3000
0000
,
1000
0000
0000
0000
0000
0000
0010
0000
,
0001
0000
0000
0000
0000
0000
0010
0000
,
1000
0000
0000
0000
0000
0000
0100
0000
,
0000
0000
0000
0000
1000
0000
0100
0000
,
0000
0000
1000
0000
1000
0000
0100
0000
,
0001
0000
1000
0000
0001
0000
1001
0000
,
1010
0000
1000
0000
1000
0000
0001
0000
,
1000
0000
0010
0000
0100
0000
0010
0000
,
0001
0000
0000
0000
0010
0000
0100
0000
,
1000
0000
0000
0000
0010
0000
0100
0000
,
0000
0000
1000
0000
1000
0000
0100
0000
,
0001
0000
1000
0000
0001
0000
0010
0000
,
0000
0000
0001
0000
1000
0000
0010
0000
,
0000
0000
0001
0000
0100
0000
0001
0000
,
1000
0000
0000
0000
0010
0000
0100
0000
,
0000
0000
0001
0000
1000
0000
0001
0000
,
0000
0000
1000
0000
0100
0000
0010
0000
,
0000
0000
0001
0000
1000
0000
0001
0000
,
0000
0000
0001
0000
1000
0000
0001
0000
,
0001
0000
0010
0000
0010
0000
0000
0000
,
0000
0000
0001
0000
0100
0000
0001
0000
,
0000
0000
0001
0000
0100
0000
0001
0000
,
1000
0000
0000
0000
0010
0000
0100
0000
,
0000
0000
0001
0000
1000
0000
0100
0000
,
0000
0000
0001
0000
1000
0000
0010
0000
,
0000
0000
0001
0000
1000
0000
0010
0000
,
0000
0000
1000
0000
0001
0000
0100
0000
,
0000
0000
1000
0000
0001
0000
0010
0000
,
0001
0000
0000
0000
1000
0000
0001
0000
,
0000
0000
0001
0000
1000
0000
0010
0000
,
0000
0000
1000
0000
0001
0000
0100
0000
,
0000
0000
0001
0000
1000
0000
0100
0000
,
0000
0000
1000
0000
0001
0000
0100
0000
,
0000
0000
1000
0000
1000
0000
0100
0000
,
0000
0000
1000
0000
0100
0000
0010
0000
,
0000
0000
1000
0000
1000
0000
0100
0000
,
0001
0000
0000
0000
1000
0000
0001
0000
,
0000
0000
0001
0000
1000
0000
0010
0000
,
0000
0000
1000
0000
0001
0000
0100
0000
,
0000
0000
1000
0000
0001
0000
0100
0000
,
0000
0000
0001
0000
1000
0000
0100
0000
,
0000
0000
1000
0000
1000
0000
0100
0000
,
0000
0000
1000
0000
0100
0000
0010
0000
,
0000
0000
1000
0000
1000
0000
0100
0000
,
0001
0000
0000
0000
1000
0000
0001
0000
,
1000
0000
0010
0000
0100
0000
0010
0000
,
0000
0000
0001
0000
0010
0000
0000
0000
,
1000
0000
0001
0000
0000
0000
0000
0000
,
0000
0000
0000
0000
0000
0000
0000
0000
,
#NOTES:
     dance-single:
     Standard:
     medium:
     3:
     :
1000
0000
0000
0000
0002
0000
0000
0000
,
0000
0000
0000
0000
0000
0000
0000
0000
,
0003
0000
0001
0000
0100
0000
0000
0000
,
0000
0000
0001
0000
0010
0000
0000
0000
,
0000
0000
0000
0000
1000
0000
0000
0000
,
1000
0000
0000
0000
0000
0000
0001
0000
,
0000
0000
1000
0000
0001
0000
0000
0000
,
0000
0000
0000
0000
0000
0000
0001
0000
,
1000
0000
0000
0000
0000
0000
0001
0000
,
0000
0000
0001
0000
0010
0000
0000
0000
,
0000
0000
0000
0000
1000
0000
0100
0000
,
1000
0000
0000
0000
0010
0000
0000
0000
,
0000
0000
0000
0000
1000
0000
0010
0000
,
0000
0000
0000
0000
0001
0000
0010
0000
,
0000
0000
1000
0000
0000
0000
0100
0000
,
0000
0000
0000
0000
1000
0000
0100
0000
,
0000
0000
0000
0000
1000
0000
0010
0000
,
0000
0000
0001
0000
0010
0000
0000
0000
,
0001
0000
0000
0000
0100
0000
0010
0000
,
0000
0000
0000
0000
1000
0000
0100
0000
,
0000
0000
1000
0000
0010
0000
1000
0000
,
1000
0000
0000
0000
0010
0000
0100
0000
,
0000
0000
1000
0000
0010
0000
1000
0000
,
0000
0000
0001
0000
0010
0000
0100
0000
,
0000
0000
0001
0000
0100
0000
0001
0000
,
0001
0000
0000
0000
0100
0000
0010
0000
,
1000
0000
0001
0000
0001
0000
0000
0000
,
0000
0000
0001
0000
0100
0000
0001
0000
,
0000
0000
0001
0000
0010
0000
0001
0000
,
0000
0000
0001
0000
0010
0000
0001
0000
,
0000
0000
0001
0000
0100
0000
0001
0000
,
0000
0000
1000
0000
0010
0000
1000
0000
,
0000
0000
0001
0000
0100
0000
0001
0000
,
1000
0000
0000
0000
0010
0000
0010
0000
,
0000
0000
0001
0000
1000
0000
0100
0000
,
0000
0000
0001
0000
1000
0000
0020
0000
,
0000
0000
0000
0000
0000
0000
0000
0000
,
0000
0000
0000
0000
0030
0000
0100
0000
,
1000
0000
0000
0000
0000
0000
0001
0000
,
1000
0000
0001
0000
0001
0000
0000
0000
,
1000
0000
0000
0000
0000
0000
0001
0000
,
0001
0000
0000
0000
0001
0000
0000
0000
,
0000
0000
0000
0000
0001
0000
0100
0000
,
0000
0000
1000
0000
0010
0000
1000
0000
,
0000
0000
0000
0000
0001
0000
0010
0000
,
0000
0000
0000
0000
1000
0000
0100
0000
,
0001
0000
0100
0000
0100
0000
0000
0000
,
0000
0000
0000
0000
0001
0000
0010
0000
,
1000
0000
0000
0000
0000
0000
0001
0000
,
1000
0000
0000
0000
1000
0000
0000
0000
,
0000
0000
0000
0000
1000
0000
0100
0000
,
0000
0000
1000
0000
0010
0000
1000
0000
,
1000
0000
0000
0000
1000
0000
0000
0000
,
0000
0000
0000
0000
1000
0000
0100
0000
,
0000
0000
1000
0000
0001
0000
0000
0000
,
0000
0000
0000
0000
1000
0000
0100
0000
,
0000
0000
0000
0000
0001
0000
0010
0000
,
0000
0000
1000
0000
0010
0000
1000
0000
,
0000
0000
1000
0000
0100
0000
1000
0000
,
0000
0000
0001
0000
0100
0000
0001
0000
,
0000
0000
0001
0000
0010
0000
0100
0000
,
1000
0000
0000
0000
0100
0000
1000
0000
,
0001
0000
0000
0000
0100
0000
0010
0000
,
0000
0000
1000
0000
0010
0000
1000
0000
,
0000
0000
0001
0000
0100
0000
0001
0000
,
0000
0000
1000
0000
0100
0000
1000
0000
,
0000
0000
0001
0000
0100
0000
0001
0000
,
0000
0000
1000
0000
0010
0000
1000
0000
,
0000
0000
0001
0000
0010
0000
0100
0000
,
0000
0000
0001
0000
0100
0000
0001
0000
,
1000
0000
0000
0000
0010
0000
0010
0000
,
0000
0000
1000
0000
0010
0000
1000
0000
,
0002
0000
0000
0000
0000
0000
0003
0000
,
1000
0000
0001
0000
0001
0000
0000
0000
,
1000
0000
0000
0000
0000
0000
0001
0000
,
0000
0000
1000
0000
0001
0000
0000
0000
,
0000
0000
0000
0000
1000
0000
0100
0000
,
0002
0000
0000
0000
0000
0000
0003
0000
,
1000
0000
0000
0000
0000
0000
0001
0000
,
0001
0000
0000
0000
0000
0000
1000
0000
,
1000
0000
0000
0000
0000
0000
0001
0000
,
0000
0000
0000
0000
1000
0000
0001
0000
,
0000
0000
0001
0000
0001
0000
0100
0000
,
1000
0000
0100
0000
1000
0000
1001
0000
,
0101
0000
1000
0000
1000
0000
0100
0000
,
1000
0000
0001
0000
0100
0000
0010
0000
,
1000
0000
0000
0000
0100
0000
0010
0000
,
0001
0000
0000
0000
0010
0000
0100
0000
,
0000
0000
0001
0000
0001
0000
0100
0000
,
1000
0000
0001
0000
0100
0000
0001
0000
,
0000
0000
1000
0000
0010
0000
1000
0000
,
0000
0000
0001
0000
0010
0000
0100
0000
,
0001
0000
0000
0000
0100
0000
0001
0000
,
0000
0000
0001
0000
1000
0000
0100
0000
,
0000
0000
0001
0000
0010
0000
0100
0000
,
0000
0000
0001
0000
1000
0000
0100
0000
,
0000
0000
0001
0000
1000
0000
0010
0000
,
0001
0000
0100
0000
0100
0000
0000
0000
,
0000
0000
0001
0000
0010
0000
0100
0000
,
0000
0000
0001
0000
0100
0000
0010
0000
,
0001
0000
0000
0000
0100
0000
0001
0000
,
0000
0000
1000
0000
0010
0000
1000
0000
,
0000
0000
0001
0000
0010
0000
0001
0000
,
0000
0000
1000
0000
0010
0000
1000
0000
,
0000
0000
0001
0000
0100
0000
0001
0000
,
0000
0000
1000
0000
0010
0000
1000
0000
,
0001
0000
0000
0000
0100
0000
0010
0000
,
0000
0000
1000
0000
0010
0000
1000
0000
,
0000
0000
0001
0000
0100
0000
0001
0000
,
0000
0000
0001
0000
0010
0000
0001
0000
,
0000
0000
0001
0000
0010
0000
0001
0000
,
0000
0000
0001
0000
0001
0000
0100
0000
,
0000
0000
0001
0000
0010
0000
0100
0000
,
0000
0000
0001
0000
0001
0000
0100
0000
,
0001
0000
0000
0000
0100
0000
0010
0000
,
0000
0000
1000
0000
0010
0000
1000
0000
,
0000
0000
0001
0000
0100
0000
0001
0000
,
0000
0000
1000
0000
0010
0000
1000
0000
,
0000
0000
1000
0000
0010
0000
1000
0000
,
0000
0000
0001
0000
0001
0000
0100
0000
,
0000
0000
0001
0000
0010
0000
0100
0000
,
0000
0000
0001
0000
0001
0000
0100
0000
,
0001
0000
0000
0000
0100
0000
0010
0000
,
1000
0000
0001
0000
0100
0000
0010
0000
,
0000
0000
1000
0000
0001
0000
0000
0000
,
1000
0000
0010
0000
0000
0000
0000
0000
,
0000
0000
0000
0000
0000
0000
0000
0000
,
#NOTES:
     dance-single:
     Heavy:
     hard:
     3:
     :
1000
0000
0000
0000
0020
0000
0000
0000
,
0000
0000
0000
0000
0000
0000
0000
0000
,
0030
0000
0001
0000
0100
0000
0000
0000
,
0000
0000
0001
0000
0010
0000
0000
0000
,
0000
0000
0000
0000
0001
0000
0000
0000
,
0001
0000
0000
0000
0000
0000
0010
0000
,
0000
0000
1000
0000
0010
0000
0000
0000
,
0000
0000
0000
0000
0000
0000
0001
0000
,
1000
0000
0000
0000
0000
0000
0001
0000
,
0000
0000
1000
0000
0100
0000
0000
0000
,
0000
0000
0000
0000
1000
0000
0001
0000
,
0001
0000
0000
0000
1000
0000
0000
0000
,
0000
0000
0000
0000
0001
0000
0100
0000
,
0000
0000
0000
0000
1000
0000
0100
0000
,
0000
0000
1000
0000
0000
0000
0010
0000
,
0000
0000
0000
0000
0001
0000
1000
0000
,
0000
0000
0000
0000
1000
0000
0001
0000
,
0000
0000
1000
0000
0100
0000
0000
0000
,
0001
0000
0000
0000
0010
0000
0001
0000
,
0000
0000
0000
0000
0001
0000
1000
0000
,
0000
0000
1000
0000
0010
0000
1000
0000
,
0001
0000
0000
0000
1000
0000
0100
0000
,
0000
0000
1000
0000
0010
0000
1000
0000
,
0000
0000
0001
0000
1000
0000
0100
0000
,
0000
0000
0001
0000
0100
0000
0001
0000
,
0001
0000
0000
0000
0100
0000
0001
0000
,
0001
0000
0010
0000
0010
0000
0000
0000
,
0000
0000
0001
0000
0100
0000
0001
0000
,
0000
0000
0001
0000
0010
0000
0001
0000
,
0000
0000
0001
0000
0100
0000
0001
0000
,
0000
0000
0001
0000
0100
0000
0001
0000
,
0000
0000
1000
0000
0010
0000
1000
0000
,
0000
0000
0001
0000
0100
0000
0001
0000
,
1000
0000
0000
0000
0100
0000
0100
0000
,
0000
0000
0001
0000
0010
0000
0100
0000
,
0000
0000
1000
0000
0100
0000
0200
0000
,
0000
0000
0000
0000
0000
0000
0000
0000
,
0000
0000
0000
0000
0300
0000
1000
0000
,
1000
0000
0000
0000
0000
0000
0001
0000
,
0001
0000
0010
0000
0010
0000
0000
0000
,
1000
0000
0000
0000
0000
0000
0001
0000
,
0001
0000
0000
0000
0001
0000
0000
0000
,
0000
0000
0000
0000
1000
0000
0001
0000
,
0000
0000
1000
0000
0010
0000
1000
0000
,
0000
0000
0000
0000
1000
0000
0100
0000
,
0000
0000
0000
0000
0001
0000
1000
0000
,
1000
0000
0100
0000
0100
0000
0000
0000
,
0000
0000
0000
0000
0001
0000
0010
0000
,
1000
0000
0000
0000
0000
0000
0001
0000
,
1000
0000
0000
0000
1000
0000
0000
0000
,
0000
0000
0000
0000
0001
0000
1000
0000
,
0000
0000
1000
0000
0010
0000
1000
0000
,
1000
0000
0000
0000
1000
0000
0000
0000
,
0000
0000
0000
0000
0001
0000
1000
0000
,
0000
0000
1000
0000
0010
0000
0000
0000
,
0000
0000
0000
0000
0001
0000
1000
0000
,
0000
0000
0000
0000
1000
0000
0001
0000
,
0000
0000
1000
0000
0010
0000
1000
0000
,
0000
0000
1000
0000
0010
0000
1000
0000
,
0000
0000
0001
0000
0100
0000
0001
0000
,
0000
0000
0001
0000
1000
0000
0100
0000
,
1000
0000
0000
0000
0010
0000
1000
0000
,
0001
0000
0000
0000
0100
0000
0001
0000
,
0000
0000
1000
0000
0010
0000
1000
0000
,
0000
0000
0001
0000
0100
0000
0001
0000
,
0000
0000
0001
0000
0100
0000
0001
0000
,
0000
0000
1000
0000
0010
0000
1000
0000
,
0000
0000
1000
0000
0010
0000
1000
0000
,
0000
0000
0001
0000
1000
0000
0100
0000
,
0000
0000
0001
0000
0100
0000
0001
0000
,
1000
0000
0000
0000
0100
0000
0100
0000
,
0000
0000
1000
0000
0010
0000
1000
0000
,
0002
0000
0000
0000
0000
0000
0003
0000
,
0001
0000
0010
0000
0010
0000
0000
0000
,
1000
0000
0000
0000
0000
0000
0001
0000
,
0000
0000
1000
0000
0010
0000
0000
0000
,
0000
0000
0000
0000
0001
0000
1000
0000
,
0002
0000
0000
0000
0000
0000
0003
0000
,
1000
0000
0000
0000
0000
0000
0001
0000
,
1000
0000
0000
0000
0000
0000
0001
0000
,
1000
0000
0000
0000
0000
0000
0001
0000
,
0000
0000
0000
0000
0001
0000
0100
0000
,
0000
0000
0001
0000
0001
0000
0010
0000
,
1000
0000
0100
0000
0010
0000
1010
0000
,
1010
0000
0001
0000
0001
0000
1000
0000
,
1000
0000
0010
0000
1000
0000
0010
0000
,
1000
0000
0000
0000
0010
0000
1000
0000
,
0001
0000
0000
0000
0100
0000
0001
0000
,
0000
0000
0001
0000
0001
0000
0010
0000
,
1000
0000
0100
0000
1000
0000
0001
0000
,
0000
0000
1000
0000
0010
0000
1000
0000
,
0000
0000
0001
0000
1000
0000
0100
0000
,
1000
0000
0000
0000
0010
0000
1000
0000
,
0000
0000
0001
0000
0010
0000
0100
0000
,
0000
0000
0001
0000
1000
0000
0100
0000
,
0000
0000
0001
0000
0010
0000
0100
0000
,
0000
0000
1000
0000
0010
0000
0100
0000
,
1000
0000
0100
0000
0100
0000
0000
0000
,
0000
0000
0001
0000
1000
0000
0100
0000
,
0000
0000
1000
0000
0001
0000
0100
0000
,
1000
0000
0000
0000
0010
0000
1000
0000
,
0000
0000
1000
0000
0010
0000
1000
0000
,
0000
0000
1000
0000
0010
0000
1000
0000
,
0000
0000
1000
0000
0010
0000
1000
0000
,
0000
0000
0001
0000
0100
0000
0001
0000
,
0000
0000
0001
0000
0010
0000
0001
0000
,
0001
0000
0000
0000
0100
0000
0001
0000
,
0000
0000
1000
0000
0010
0000
1000
0000
,
0000
0000
0001
0000
0100
0000
0001
0000
,
0000
0000
1000
0000
0010
0000
1000
0000
,
0000
0000
1000
0000
0010
0000
1000
0000
,
0000
0000
0001
0000
0001
0000
0010
0000
,
0000
0000
0001
0000
1000
0000
0100
0000
,
0000
0000
0001
0000
0001
0000
0010
0000
,
0001
0000
0000
0000
0100
0000
0001
0000
,
0000
0000
1000
0000
0010
0000
1000
0000
,
0000
0000
0001
0000
0100
0000
0001
0000
,
0000
0000
0001
0000
0100
0000
0001
0000
,
0000
0000
1000
0000
0100
0000
1000
0000
,
0000
0000
0001
0000
0001
0000
0010
0000
,
0000
0000
0001
0000
1000
0000
0100
0000
,
0000
0000
0001
0000
0001
0000
0010
0000
,
0001
0000
0000
0000
0100
0000
0001
0000
,
1000
0000
0010
0000
1000
0000
0010
0000
,
0000
0000
1000
0000
0010
0000
0000
0000
,
1000
0000
0100
0000
0000
0000
0000
0000
,
0000
0000
0000
0000
0000
0000
0000
0000
,
