#TITLE:Falcon Uncaged;
#SUBTITLE:;
#ARTIST:Unknown artist;
#TITLETRANSLIT:;
#SUBTITLETRANSLIT:;
#ARTISTTRANSLIT:;
#GENRE:;
#CREDIT:;
#BANNER:johnny_cage_vs_captain_falcon_by_grandbull_de8ecfc-pre - Copy.jpg;
#BACKGROUND:johnny_cage_vs_captain_falcon_by_grandbull_de8ecfc-pre.jpg;
#LYRICSPATH:;
#CDTITLE:;
#MUSIC:onlymp3.to - Death Battle Falcon Uncaged Score from the Rooster Teeth Series --oGBRENFlTI-192k-1706589424.mp3;
#OFFSET:0.000000;
#SAMPLESTART:99.580009;
#SAMPLELENGTH:12.000000;
#SELECTABLE:YES;
#BPMS:0.000000=70.000000
,27.000000=100.000000
;
#STOPS:
;
#BGCHANGES:;
#KEYSOUNDS:;
#ATTACKS:;

//---------------dance-single - ----------------
#NOTES:
     dance-single:
     :
     Beginner:
     1:
     0.079635,0.072628,0.000000,0.000000,0.000000,130.000000,130.000000,0.000000,0.000000,0.000000,0.000000,0.079635,0.072628,0.000000,0.000000,0.000000,130.000000,130.000000,0.000000,0.000000,0.000000,0.000000:
0000
0000
0000
0000
,
0000
0000
0010
0000
,
0100
0000
0010
0000
,
0001
0000
1000
0000
,
0000
0000
0000
0000
,
0000
0100
0000
0000
,
1000
0000
0000
0000
,
0100
0000
0100
0000
,
0001
1000
0000
0010
,
0000
0001
0000
0100
,
0000
0100
0000
0001
,
0000
1000
0000
0010
,
0000
0100
0000
1000
,
0000
1000
0000
0001
,
0000
1000
0000
0100
,
0000
1000
0000
0010
,
0000
0100
0000
0010
,
0000
0001
0000
0100
,
0000
0010
0000
1000
,
0000
0100
0000
0010
,
0000
0001
0000
0010
,
0000
1000
0000
0010
,
0000
0100
0000
0001
,
0000
0010
0000
0100
,
0000
0010
0000
1000
,
0000
0100
0000
0010
,
0000
0100
0000
1000
,
0000
1000
0000
1000
,
0000
1000
0000
0010
,
0000
0010
0000
0010
,
0000
0100
0000
0001
,
0000
0010
0000
1000
,
0000
0010
0000
0100
,
0000
0001
0000
0010
,
0000
1000
0000
0100
,
0000
0010
0000
1000
,
0000
0100
0000
0010
,
0000
0001
0000
0010
,
0000
1000
0000
0100
,
0000
0010
0000
0001
,
0000
0010
0000
1000
,
0000
0100
0000
0010
,
0000
1000
0000
0100
,
0000
0010
0000
0001
,
0000
0010
0000
0100
,
0000
0010
0000
1000
,
0000
0010
0000
0100
,
0000
0001
0000
0010
,
0000
0100
0000
1000
,
0000
0010
0000
0100
,
0000
0010
0000
0100
,
0000
0001
0000
0010
,
0000
0100
0000
1000
,
0000
0010
0000
0100
,
0000
0001
0000
0010
,
0000
0100
0000
0010
,
0000
1000
0000
0010
,
0000
0100
0000
0001
,
0000
0010
0000
0100
,
0000
0010
0000
1000
,
0000
0010
0000
0100
,
0000
0010
0000
1000
,
0000
0100
0000
0001
,
0000
0010
0000
0100
,
0000
0010
0000
0100
,
0000
0001
0000
0010
,
0000
1000
0000
0010
,
0000
0100
0000
0010
;

//---------------dance-single - ----------------
#NOTES:
     dance-single:
     :
     Easy:
     1:
     0.156206,0.136520,0.000000,0.034304,0.000000,255.000000,255.000000,0.000000,8.000000,0.000000,0.000000,0.156206,0.136520,0.000000,0.034304,0.000000,255.000000,255.000000,0.000000,8.000000,0.000000,0.000000:
// measure 0
2000
0000
0000
0000
,  // measure 1
0000
3000
0002
0000
0000
0000
0000
0000
,  // measure 2
0000
0000
0000
0003
,  // measure 3
0000
2000
0000
3002
,  // measure 4
0000
0003
0000
1000
,  // measure 5
0100
0100
0010
0100
,  // measure 6
1000
1000
0000
0000
,  // measure 7
0100
0001
1000
0100
,  // measure 8
0100
0100
0010
0010
,  // measure 9
0010
1000
1000
1000
,  // measure 10
0100
0100
0100
0010
,  // measure 11
0010
1000
0100
0010
,  // measure 12
0100
0001
0010
1000
,  // measure 13
0010
2000
0000
3000
,  // measure 14
0010
0100
1000
1000
,  // measure 15
0100
1000
0010
0001
,  // measure 16
1000
1000
1000
0001
,  // measure 17
0001
0010
0100
2000
,  // measure 18
0000
0000
0000
0000
,  // measure 19
3000
0100
1000
0010
,  // measure 20
0100
0010
0001
0100
,  // measure 21
0010
1000
0001
0010
,  // measure 22
0100
0010
1000
0100
,  // measure 23
0010
0001
0010
0010
,  // measure 24
0100
1000
0001
1000
,  // measure 25
0100
0010
0001
0010
,  // measure 26
0100
1000
0010
0001
,  // measure 27
0100
0010
1000
0100
,  // measure 28
1000
1000
1000
0001
,  // measure 29
0010
0001
0001
2000
,  // measure 30
0000
3000
0010
0010
,  // measure 31
1000
1000
0001
0001
,  // measure 32
0100
0100
0010
0010
,  // measure 33
1000
1000
0100
0100
,  // measure 34
0001
0001
0000
2000
,  // measure 35
0000
3000
0010
0100
,  // measure 36
0010
1000
1000
0001
,  // measure 37
0010
0100
0001
0001
,  // measure 38
1000
1000
0100
0100
,  // measure 39
0001
0001
0010
0010
,  // measure 40
0100
0100
1000
1000
,  // measure 41
0001
0001
1000
0100
,  // measure 42
0010
0100
0001
0010
,  // measure 43
0100
0001
0010
0100
,  // measure 44
1000
0010
0100
0001
,  // measure 45
0010
1000
0100
0001
,  // measure 46
0010
0100
0001
0010
,  // measure 47
1000
0010
1000
1000
,  // measure 48
1000
0001
0001
0001
,  // measure 49
0010
0010
0100
0100
,  // measure 50
0010
1000
0001
0010
,  // measure 51
0100
0001
0010
0100
,  // measure 52
1000
0010
0100
0001
,  // measure 53
0010
0100
0001
1000
,  // measure 54
0100
0001
1000
0010
,  // measure 55
0100
0001
0010
1000
,  // measure 56
0100
0010
0001
0010
,  // measure 57
0100
1000
0010
0100
,  // measure 58
0001
0010
0100
0010
,  // measure 59
0100
1000
0100
0010
,  // measure 60
0100
0001
0010
1000
,  // measure 61
0100
0010
0001
0010
,  // measure 62
0100
1000
0010
0100
,  // measure 63
0001
0010
0100
1000
,  // measure 64
0010
0100
0001
0010
,  // measure 65
0100
0001
1000
0100
,  // measure 66
0001
0010
0100
1000
,  // measure 67
0001
0010
0100
1000
,  // measure 68
0010
0100
0001
0010
,  // measure 69
0100
0001
1000
0010
,  // measure 70
0100
0010
0100
0001
;
