#VERSION:0.83;
#TITLE:Friday Night Funkin'_ Corruption - Deathmatch (ft. DatDavi);
#SUBTITLE:;
#ARTIST:Dancing Monkeys Project;
#TITLETRANSLIT:;
#SUBTITLETRANSLIT:;
#ARTISTTRANSLIT:;
#GENRE:;
#ORIGIN:;
#CREDIT:Gorilla v1.1.3 (Dancing Monkeys v1.06);
#BANNER:hq720.png;
#BACKGROUND:df03b2w-57de9a52-44b5-4092-8230-a14e8216f96a.png;
#PREVIEWVID:;
#JACKET:;
#CDIMAGE:;
#DISCIMAGE:;
#LYRICSPATH:;
#CDTITLE:;
#MUSIC:Friday Night Funkin'_ Corruption - Deathmatch (ft. DatDavi).mp3;
#OFFSET:-1.448912;
#SAMPLESTART:36.117935;
#SAMPLELENGTH:12.000000;
#SELECTABLE:YES;
#BPMS:0.000=179.988;
#STOPS:;
#DELAYS:;
#WARPS:;
#TIMESIGNATURES:0.000=4=4;
#TICKCOUNTS:0.000=4;
#COMBOS:0.000=1;
#SPEEDS:0.000=1.200=0.000=0;
#SCROLLS:0.000=1.000;
#FAKES:;
#LABELS:0.000=Song Start;
#BGCHANGES:;
#KEYSOUNDS:;
#ATTACKS:
;

//---------------dance-single - Basic----------------
#NOTEDATA:;
#CHARTNAME:;
#STEPSTYPE:dance-single;
#DESCRIPTION:Basic;
#CHARTSTYLE:;
#DIFFICULTY:Beginner;
#METER:7;
#RADARVALUES:0.159390,0.159559,0.000000,0.099281,0.000000,236.000000,236.000000,0.000000,21.000000,0.000000,0.000000,0.000000,0.000000,0.000000,0.159390,0.159559,0.000000,0.099281,0.000000,236.000000,236.000000,0.000000,21.000000,0.000000,0.000000,0.000000,0.000000,0.000000;
#CREDIT:;
#NOTES:
0000
0000
0000
2000
,
0000
0000
0000
3000
,
0020
0000
0000
0000
,
0000
0000
0000
0030
,
0200
0000
0000
0000
,
0000
0000
0000
0300
,
0020
0000
0000
0030
,
2000
0000
0000
0000
,
0000
0000
3000
0000
,
2000
0000
0000
3000
,
0002
0000
0000
0003
,
2000
0000
0000
3000
,
0002
0000
0000
0003
,
2000
0000
3000
0000
,
0002
0000
0000
0003
,
1000
0000
0100
0000
,
0010
0000
0001
0000
,
0001
0000
1000
0000
,
0100
0000
0010
0000
,
1000
0001
0000
0100
,
0000
1000
0000
0001
,
0000
0001
0000
0100
,
0000
0001
0000
0010
,
0000
1000
0000
0010
,
0000
0100
0000
0001
,
0000
1000
0000
0010
,
0000
0001
0000
0010
,
0000
1000
0000
0010
,
0000
0010
0000
0100
,
0000
1000
0000
0010
,
0000
0002
0000
0000
,
0000
0003
0000
0100
,
0000
1000
0000
0100
,
0000
0010
0000
0010
,
0000
0001
0000
0010
,
0000
0010
0000
0100
,
0000
1000
0000
0100
,
0000
0010
0000
0002
,
0000
0000
0000
0003
,
0000
0001
0000
0010
,
0000
1000
0000
0100
,
0000
1000
0000
0010
,
0000
0001
0000
0010
,
0000
0001
0000
0010
,
0000
0100
0000
0010
,
0000
0001
0000
0002
,
0000
0000
0000
0003
,
0000
1000
0000
1000
,
0000
0100
0000
1000
,
0000
1000
0000
0100
,
0000
0001
0000
1000
,
0000
0100
0000
1000
,
0000
0001
0000
0100
,
0000
1000
0000
1000
,
0000
0010
0000
1000
,
0000
0000
0010
0000
,
0001
0000
1000
0000
,
0001
0000
0010
0000
,
1000
0000
0010
0000
,
0001
0000
0001
0000
,
1000
0000
0010
0000
,
0001
0000
0001
0000
,
1000
0000
1000
0000
,
0001
0000
2000
0000
,
0000
3000
0000
0010
,
0000
2000
0000
0000
,
0000
0000
3000
0000
,
1000
0000
0010
0000
,
0001
0000
0001
0000
,
0100
0000
0001
0000
,
0010
0000
0002
0000
,
0000
0003
0000
0100
,
0000
1000
0000
0100
,
0000
0001
0000
0010
,
0000
1000
0000
0100
,
0000
0001
0000
0010
,
0000
0001
0000
1000
,
0000
0010
0000
0001
,
0000
0001
0000
0010
,
0000
0001
0000
0100
,
0000
1000
0000
0100
,
0000
0001
0000
1000
,
0000
0001
0000
0010
,
0000
0001
0000
0010
,
0000
1000
0000
0001
,
0000
1000
0000
1000
,
0000
0010
0000
0001
,
0000
0100
0000
0010
,
0000
0100
0000
0010
,
0000
0001
0000
1000
,
0000
0001
0000
1000
,
0000
0001
0000
1000
,
0000
0001
0000
1000
,
1000
0000
0010
0000
,
0100
0000
0010
0000
,
1000
0000
0010
0000
,
0001
0000
0010
0000
,
1000
0000
0010
0000
,
0100
0000
0001
0000
,
0002
0000
0003
0000
,
2000
0000
3000
0000
,
0002
0000
0003
0000
,
0010
0000
0100
0000
,
2000
0000
0000
0000
,
3000
0000
0010
0000
,
0001
0000
0010
0000
,
0001
0000
0010
0000
,
0001
0000
0010
0000
,
0001
0000
0010
0000
,
0100
0000
0010
0000
,
0001
0000
0100
0000
,
1000
0000
0010
0000
,
0001
0000
0100
0000
,
1000
0000
0100
0000
,
0001
0000
1000
0000
,
0001
0000
0100
0000
,
0001
0000
0010
0000
,
0001
0000
0100
0000
,
0001
0000
1000
0000
,
0010
0000
0100
0000
,
1000
0000
0010
0000
,
1000
0000
0100
0000
,
0001
0000
1000
0000
,
0001
0000
1000
0000
,
0010
0000
0100
0000
,
1000
0000
0001
0000
,
0100
0000
0100
0000
,
0001
0000
0100
0000
,
0001
0000
0100
0000
,
0001
0000
0010
0000
,
0001
0000
0010
0000
,
1000
0000
0010
0000
,
1000
0000
1000
0000
,
0010
0000
0001
0000
,
1000
0000
0001
0000
,
0010
0000
0000
0000
;

//---------------dance-single - Basic----------------
#NOTEDATA:;
#CHARTNAME:;
#STEPSTYPE:dance-single;
#DESCRIPTION:Basic;
#CHARTSTYLE:;
#DIFFICULTY:Easy;
#METER:7;
#RADARVALUES:0.159390,0.159559,0.000000,0.099281,0.000000,236.000000,236.000000,0.000000,21.000000,0.000000,0.000000,0.000000,0.000000,0.000000,0.159390,0.159559,0.000000,0.099281,0.000000,236.000000,236.000000,0.000000,21.000000,0.000000,0.000000,0.000000,0.000000,0.000000;
#CREDIT:;
#NOTES:
0000
0000
0000
2000
,
0000
0000
0000
3000
,
0020
0000
0000
0000
,
0000
0000
0000
0030
,
0200
0000
0000
0000
,
0000
0000
0000
0300
,
0020
0000
0000
0030
,
2000
0000
0000
0000
,
0000
0000
3000
0000
,
2000
0000
0000
3000
,
0002
0000
0000
0003
,
2000
0000
0000
3000
,
0002
0000
0000
0003
,
2000
0000
3000
0000
,
0002
0000
0000
0003
,
1000
0000
0100
0000
,
0010
0000
0001
0000
,
0001
0000
1000
0000
,
0100
0000
0010
0000
,
1000
0001
0000
0100
,
0000
1000
0000
0001
,
0000
0001
0000
0100
,
0000
0001
0000
0010
,
0000
1000
0000
0010
,
0000
0100
0000
0001
,
0000
1000
0000
0010
,
0000
0001
0000
0010
,
0000
1000
0000
0010
,
0000
0010
0000
0100
,
0000
1000
0000
0010
,
0000
0002
0000
0000
,
0000
0003
0000
0100
,
0000
1000
0000
0100
,
0000
0010
0000
0010
,
0000
0001
0000
0010
,
0000
0010
0000
0100
,
0000
1000
0000
0100
,
0000
0010
0000
0002
,
0000
0000
0000
0003
,
0000
0001
0000
0010
,
0000
1000
0000
0100
,
0000
1000
0000
0010
,
0000
0001
0000
0010
,
0000
0001
0000
0010
,
0000
0100
0000
0010
,
0000
0001
0000
0002
,
0000
0000
0000
0003
,
0000
1000
0000
1000
,
0000
0100
0000
1000
,
0000
1000
0000
0100
,
0000
0001
0000
1000
,
0000
0100
0000
1000
,
0000
0001
0000
0100
,
0000
1000
0000
1000
,
0000
0010
0000
1000
,
0000
0000
0010
0000
,
0001
0000
1000
0000
,
0001
0000
0010
0000
,
1000
0000
0010
0000
,
0001
0000
0001
0000
,
1000
0000
0010
0000
,
0001
0000
0001
0000
,
1000
0000
1000
0000
,
0001
0000
2000
0000
,
0000
3000
0000
0010
,
0000
2000
0000
0000
,
0000
0000
3000
0000
,
1000
0000
0010
0000
,
0001
0000
0001
0000
,
0100
0000
0001
0000
,
0010
0000
0002
0000
,
0000
0003
0000
0100
,
0000
1000
0000
0100
,
0000
0001
0000
0010
,
0000
1000
0000
0100
,
0000
0001
0000
0010
,
0000
0001
0000
1000
,
0000
0010
0000
0001
,
0000
0001
0000
0010
,
0000
0001
0000
0100
,
0000
1000
0000
0100
,
0000
0001
0000
1000
,
0000
0001
0000
0010
,
0000
0001
0000
0010
,
0000
1000
0000
0001
,
0000
1000
0000
1000
,
0000
0010
0000
0001
,
0000
0100
0000
0010
,
0000
0100
0000
0010
,
0000
0001
0000
1000
,
0000
0001
0000
1000
,
0000
0001
0000
1000
,
0000
0001
0000
1000
,
1000
0000
0010
0000
,
0100
0000
0010
0000
,
1000
0000
0010
0000
,
0001
0000
0010
0000
,
1000
0000
0010
0000
,
0100
0000
0001
0000
,
0002
0000
0003
0000
,
2000
0000
3000
0000
,
0002
0000
0003
0000
,
0010
0000
0100
0000
,
2000
0000
0000
0000
,
3000
0000
0010
0000
,
0001
0000
0010
0000
,
0001
0000
0010
0000
,
0001
0000
0010
0000
,
0001
0000
0010
0000
,
0100
0000
0010
0000
,
0001
0000
0100
0000
,
1000
0000
0010
0000
,
0001
0000
0100
0000
,
1000
0000
0100
0000
,
0001
0000
1000
0000
,
0001
0000
0100
0000
,
0001
0000
0010
0000
,
0001
0000
0100
0000
,
0001
0000
1000
0000
,
0010
0000
0100
0000
,
1000
0000
0010
0000
,
1000
0000
0100
0000
,
0001
0000
1000
0000
,
0001
0000
1000
0000
,
0010
0000
0100
0000
,
1000
0000
0001
0000
,
0100
0000
0100
0000
,
0001
0000
0100
0000
,
0001
0000
0100
0000
,
0001
0000
0010
0000
,
0001
0000
0010
0000
,
1000
0000
0010
0000
,
1000
0000
1000
0000
,
0010
0000
0001
0000
,
1000
0000
0001
0000
,
0010
0000
0000
0000
;
