#VERSION:0.83;
#TITLE:Ready Or Not;
#SUBTITLE:;
#ARTIST:Dancing Monkeys Project;
#TITLETRANSLIT:;
#SUBTITLETRANSLIT:;
#ARTISTTRANSLIT:;
#GENRE:;
#ORIGIN:;
#CREDIT:Gorilla v1.1.3 (Dancing Monkeys v1.06);
#BANNER:VS-Corrupted-Spongebob.png;
#BACKGROUND:61eeb431f3785.png;
#PREVIEWVID:;
#JACKET:;
#CDIMAGE:;
#DISCIMAGE:;
#LYRICSPATH:;
#CDTITLE:;
#MUSIC:Ready Or Not.mp3;
#OFFSET:-0.365737;
#SAMPLESTART:53.685459;
#SAMPLELENGTH:12.000000;
#SELECTABLE:YES;
#BPMS:0.000=134.000;
#STOPS:;
#DELAYS:0.000=57.000;
#WARPS:;
#TIMESIGNATURES:0.000=4=4;
#TICKCOUNTS:0.000=4;
#COMBOS:0.000=1;
#SPEEDS:0.000=0.800=0.000=0;
#SCROLLS:0.000=1.000;
#FAKES:;
#LABELS:0.000=Song Start;
#BGCHANGES:;
#KEYSOUNDS:;
#ATTACKS:
;

//---------------dance-single - Basic----------------
#NOTEDATA:;
#CHARTNAME:Basic;
#STEPSTYPE:dance-single;
#DESCRIPTION:Basic;
#CHARTSTYLE:;
#DIFFICULTY:Easy;
#METER:2;
#RADARVALUES:0.144617,0.170223,0.000000,0.070001,0.000000,188.000000,188.000000,0.000000,13.000000,0.000000,0.000000,0.000000,0.000000,0.000000,0.144617,0.170223,0.000000,0.070001,0.000000,188.000000,188.000000,0.000000,13.000000,0.000000,0.000000,0.000000,0.000000,0.000000;
#CREDIT:Basic;
#NOTES:
0000
0000
0000
0000
,
0000
1000
0010
0100
,
0001
0010
1000
0100
,
0100
0010
0010
1000
,
0010
0001
0001
0010
,
0000
0100
0000
1000
,
0000
0100
0000
1000
,
0000
0001
0000
0010
,
0000
0100
0000
0010
,
0000
1000
1000
0100
,
0010
0100
1000
0001
,
0010
0010
0010
0100
,
0010
0001
0100
1000
,
0010
0100
0010
0001
,
0010
1000
0100
0001
,
0010
1000
0001
0100
,
0010
1000
0010
0100
,
0001
0010
0200
0000
,
0000
0000
0000
0300
,
0000
0000
0002
0000
,
0000
0000
0000
0003
,
0001
0010
0100
0000
,
0001
0100
0010
0000
,
1000
0010
1000
0200
,
0000
0000
0300
0100
,
0001
0010
0000
0000
,
0001
0100
0001
0010
,
0001
0010
0001
0100
,
1000
0010
1000
0100
,
1000
0100
1000
0010
,
0001
0100
0010
1000
,
0001
0100
0010
1000
,
1000
1000
0001
0001
,
0001
0100
0010
1000
,
0000
0000
0000
0020
,
0000
0030
0000
2000
,
0000
0000
3000
0002
,
0000
0003
0010
0000
,
0000
1000
0100
0010
,
1000
0100
1000
0001
,
0001
0010
0010
1000
,
1000
0000
0100
0000
,
0001
0001
0000
0001
,
0010
0010
0000
0010
,
1000
1000
0100
0001
,
1000
0010
0000
0001
,
0001
0100
0010
1000
,
0001
0100
0010
1000
,
1000
0010
0100
0001
,
0001
0010
0001
0001
,
0001
0200
0000
0000
,
0000
0300
0020
0000
,
0000
0032
0000
0000
,
0000
0003
0020
0000
,
0030
2000
0000
3000
,
0010
0000
0100
0001
,
0000
0010
0020
0000
,
0000
0000
0000
0030
,
0000
0000
0000
0000
,
0000
0000
0000
0000
,
0000
0000
0000
0000
,
0000
0000
0000
0000
,
0000
0000
0100
0100
,
0010
0010
0010
1000
,
1000
0010
0010
1000
,
1000
1000
0001
0001
,
1000
0100
0010
0001
,
1000
1000
0001
0010
,
1000
1000
0001
0001
,
1000
2000
0000
0000
,
0000
3000
0000
0000
;

//---------------dance-single - Basic----------------
#NOTEDATA:;
#CHARTNAME:;
#STEPSTYPE:dance-single;
#DESCRIPTION:Basic;
#CHARTSTYLE:;
#DIFFICULTY:Beginner;
#METER:2;
#RADARVALUES:0.068462,0.170223,0.000000,0.064616,0.000000,89.000000,89.000000,0.000000,12.000000,0.000000,0.000000,0.000000,0.000000,0.000000,0.068462,0.170223,0.000000,0.064616,0.000000,89.000000,89.000000,0.000000,12.000000,0.000000,0.000000,0.000000,0.000000,0.000000;
#CREDIT:;
#NOTES:
// measure 0
0000
0000
0000
0000
,  // measure 1
0000
1000
0000
0100
,  // measure 2
0000
0000
0000
0100
,  // measure 3
0000
0000
0000
1000
,  // measure 4
0000
0000
0000
0010
,  // measure 5
0000
0000
0000
1000
,  // measure 6
0000
0000
0000
1000
,  // measure 7
0000
0001
0000
0010
,  // measure 8
0000
0000
0000
0010
,  // measure 9
0000
0000
1000
0000
,  // measure 10
0000
0100
0000
0000
,  // measure 11
0000
0010
0000
0000
,  // measure 12
0000
0001
0000
0000
,  // measure 13
0000
0100
0000
0000
,  // measure 14
0000
1000
0000
0000
,  // measure 15
0000
0010
0000
0000
,  // measure 16
0000
1000
0000
0000
,  // measure 17
0000
0000
0200
0000
,  // measure 18
0000
0000
0000
0300
,  // measure 19
0000
0000
0002
0000
,  // measure 20
0000
0000
0000
0003
,  // measure 21
0000
0000
0010
0000
,  // measure 22
0000
0000
0010
0000
,  // measure 23
0000
0100
0000
0200
,  // measure 24
0000
0000
0000
0300
,  // measure 25
0000
0010
0000
0000
,  // measure 26
0100
0000
0010
0000
,  // measure 27
0000
0000
0001
0000
,  // measure 28
0100
0000
0000
0000
,  // measure 29
0001
0000
1000
0000
,  // measure 30
0001
0000
0000
0000
,  // measure 31
0001
0000
0000
0000
,  // measure 32
1000
0000
0000
0000
,  // measure 33
0001
0000
0000
1000
,  // measure 34
0000
0000
0000
0020
,  // measure 35
0000
0030
0000
2000
,  // measure 36
0000
0000
3000
0002
,  // measure 37
0000
0003
0000
0000
,  // measure 38
0000
1000
0000
0000
,  // measure 39
0000
0100
0000
0001
,  // measure 40
0000
0000
0000
1000
,  // measure 41
0000
0000
0000
0100
,  // measure 42
0000
0000
0000
0001
,  // measure 43
0000
0000
0000
0010
,  // measure 44
0000
0000
0000
0001
,  // measure 45
0000
0000
0000
0000
,  // measure 46
0001
0000
0000
0000
,  // measure 47
0001
0000
0000
0000
,  // measure 48
1000
0000
0000
0002
,  // measure 49
0000
0000
0000
0003
,  // measure 50
0000
0200
0000
0000
,  // measure 51
0000
0300
0000
0010
,  // measure 52
0000
0000
0000
0001
,  // measure 53
0000
0000
0020
0000
,  // measure 54
0030
2000
0000
3000
,  // measure 55
0010
0000
0100
0001
,  // measure 56
0000
0010
0020
0000
,  // measure 57
0000
0000
0000
0030
,  // measure 58
0000
0000
0000
0000
,  // measure 59
0000
0000
0000
0000
,  // measure 60
0000
0000
0000
0000
,  // measure 61
0000
0000
0000
0000
,  // measure 62
0000
0000
0100
0100
,  // measure 63
0010
0010
0010
1000
,  // measure 64
1000
0010
0010
1000
,  // measure 65
1000
1000
0001
0001
,  // measure 66
1000
0100
0010
0001
,  // measure 67
1000
1000
0001
0010
,  // measure 68
1000
1000
0001
0001
,  // measure 69
1000
2000
0000
0000
,  // measure 70
0000
3000
0000
0000
;
