#TITLE:onlymp3.to - FNF Indie Cross Bendy Ritual FC 4k -6kSFkJlykAc-192k-1708063534;
#SUBTITLE:;
#ARTIST:Dancing Monkeys Project;
#TITLETRANSLIT:;
#SUBTITLETRANSLIT:;
#ARTISTTRANSLIT:;
#GENRE:;
#CREDIT:Gorilla v1.1.3 (Dancing Monkeys v1.06);
#BANNER:fnf-indie-cross.png;
#BACKGROUND:maxresdefault.png;
#LYRICSPATH:;
#CDTITLE:;
#MUSIC:onlymp3.to - FNF Indie Cross Bendy Ritual FC 4k -6kSFkJlykAc-192k-1708063534.mp3;
#OFFSET:-0.461813;
#SAMPLESTART:43.949726;
#SAMPLELENGTH:12.000000;
#SELECTABLE:YES;
#BPMS:0.000000=160.044464
;
#STOPS:
;
#BGCHANGES:0.000=New Project.avi=1.000=0=0=0=StretchNoLoop====,
99999=-nosongbg-=1.000=0=0=0 // don't automatically add -songbackground-
;
#KEYSOUNDS:;
#ATTACKS:;

//---------------dance-single - Basic----------------
#NOTES:
     dance-single:
     Basic:
     Easy:
     3:
     0.248973,0.273092,0.000000,0.054463,0.000000,224.000000,224.000000,0.000000,7.000000,0.000000,0.000000,0.248973,0.273092,0.000000,0.054463,0.000000,224.000000,224.000000,0.000000,7.000000,0.000000,0.000000:
// measure 0
0000
1000
0000
0000
,  // measure 1
0000
0000
0000
0000
,  // measure 2
0000
0000
0000
0000
,  // measure 3
0000
0000
0000
0000
,  // measure 4
0000
0000
0000
0000
,  // measure 5
0000
0000
0000
0000
,  // measure 6
0000
0000
0000
0000
,  // measure 7
0000
1000
0000
0100
,  // measure 8
0000
1000
0000
0010
,  // measure 9
0000
0001
0000
0010
,  // measure 10
0000
1000
0000
0100
,  // measure 11
0020
1000
0000
0000
,  // measure 12
0000
0031
0000
0000
,  // measure 13
0000
1000
0000
0000
,  // measure 14
0000
1000
0000
0000
,  // measure 15
0000
1000
0000
0000
,  // measure 16
0000
1000
0000
0000
,  // measure 17
0001
0000
0100
0000
,  // measure 18
0001
0000
1000
0000
,  // measure 19
0001
0100
0000
0000
,  // measure 20
1000
0000
0000
0100
,  // measure 21
0001
0000
1000
0000
,  // measure 22
0000
0100
0001
0000
,  // measure 23
1000
0000
0001
0000
,  // measure 24
1000
0000
0001
0000
,  // measure 25
0000
0100
0100
1000
,  // measure 26
1000
0100
0100
1000
,  // measure 27
1000
0100
0100
1000
,  // measure 28
0001
1000
0010
0010
,  // measure 29
1000
0100
0100
1000
,  // measure 30
0001
1000
0000
0010
,  // measure 31
0001
0010
1000
0001
,  // measure 32
0001
1000
0010
0100
,  // measure 33
0001
1000
0010
0100
,  // measure 34
1000
0100
0100
0010
,  // measure 35
0001
0010
0100
0010
,  // measure 36
0001
0100
1000
0010
,  // measure 37
0001
0100
1000
0010
,  // measure 38
0001
0100
1000
0010
,  // measure 39
0001
0010
0100
0010
,  // measure 40
0001
0100
1000
0010
,  // measure 41
0001
0100
1000
0010
,  // measure 42
0001
0100
1000
0010
,  // measure 43
0001
0010
1000
0100
,  // measure 44
1000
0100
0001
0010
,  // measure 45
0001
0010
1000
0100
,  // measure 46
0001
0100
1000
0010
,  // measure 47
1000
0010
0001
0100
,  // measure 48
0001
0100
1000
0010
,  // measure 49
1000
0100
0001
0010
,  // measure 50
0001
1000
0010
0010
,  // measure 51
1000
0100
0100
1000
,  // measure 52
1000
0001
0001
1000
,  // measure 53
1000
0100
0100
1000
,  // measure 54
1000
0100
0001
0010
,  // measure 55
0001
0100
0001
0010
,  // measure 56
0100
1000
0001
0010
,  // measure 57
0100
1000
0001
0100
,  // measure 58
1000
0010
0010
1000
,  // measure 59
1000
0100
0100
0001
,  // measure 60
0001
0010
0100
0001
,  // measure 61
1000
0020
0000
0030
,  // measure 62
1000
2000
0000
3000
,  // measure 63
1000
0000
0001
0000
,  // measure 64
0100
0100
0100
0010
,  // measure 65
0010
0020
0000
0000
,  // measure 66
0030
1000
0001
0010
,  // measure 67
0100
2000
0000
0000
,  // measure 68
3000
0010
0100
0001
,  // measure 69
0000
2000
0000
0000
,  // measure 70
3000
0100
0001
1000
,  // measure 71
0010
0100
0001
1000
,  // measure 72
0100
0001
1000
0010
,  // measure 73
1000
0010
1000
1000
,  // measure 74
0001
0001
0010
1000
,  // measure 75
0010
0100
0100
0001
,  // measure 76
1000
0010
1000
0010
,  // measure 77
0001
0020
0000
0000
,  // measure 78
0030
0000
0000
0000
;

//---------------dance-single - Standard----------------
#NOTES:
     dance-single:
     Standard:
     Medium:
     4:
     0.277872,0.356343,0.031122,0.007780,0.000000,250.000000,246.000000,4.000000,1.000000,0.000000,0.000000,0.277872,0.356343,0.031122,0.007780,0.000000,250.000000,246.000000,4.000000,1.000000,0.000000,0.000000:
0000
0000
0001
0000
0000
0000
0000
0000
,
0000
0000
1000
0000
0000
0000
0000
0000
,
0000
0000
1000
0000
0000
0000
0000
0000
,
0000
0000
1000
0000
0000
0000
0000
0000
,
0000
0000
1000
0000
0000
0000
0000
0000
,
0000
0000
1000
0000
0000
0000
0000
0000
,
0000
0000
1000
0000
0000
0000
0000
0000
,
0000
0000
0001
0000
0000
0000
0000
0000
,
0000
0000
1000
0000
0000
0000
0000
0000
,
0000
0000
0001
0000
0000
0000
0000
0000
,
0000
0000
0001
0000
0000
0000
0000
0000
,
0020
0000
1000
0000
0000
0000
0000
0000
,
0000
0000
1030
0000
0000
0000
0000
0000
,
0000
0000
1000
0000
0000
0000
0000
0000
,
0000
0000
0001
0000
0000
0000
0000
0000
,
0001
0000
1000
0000
0000
0000
0000
0000
,
1000
0000
0001
0000
0000
0000
0000
0000
,
1000
0001
0010
0001
0010
0100
0010
0000
,
1000
0100
1000
0001
0100
0001
0100
0000
,
1000
0010
1000
0001
0010
0001
0010
0000
,
1000
0100
1000
0001
0100
0001
0100
0000
,
0001
0100
0001
1000
0100
1000
0100
0000
,
0001
0100
0001
1000
0100
1000
0100
0000
,
1000
0010
1000
0001
0010
0001
0010
0000
,
0001
0100
0001
1000
0100
1000
0100
0000
,
1000
0000
0010
0000
0010
1000
0001
0000
,
1000
0000
0010
0000
0010
1000
0001
0000
,
1000
0000
0010
0000
0010
1000
0001
0000
,
0001
0000
1000
0000
0000
0000
0100
0000
,
1000
0000
0010
0000
0010
1000
0001
0000
,
0001
0000
1000
0000
0000
0000
0100
0000
,
1000
0001
0010
0000
0001
1000
0100
0000
,
0000
0000
1001
0000
1000
0000
0011
0000
,
0000
0000
1001
0000
1000
0000
0011
0000
,
0000
0000
0001
0010
0100
0010
0100
0000
,
1000
0001
0010
0001
0010
0100
0010
0000
,
1000
0000
0001
0010
0100
0000
0010
0100
,
0001
0000
1000
0100
0010
0000
0100
0010
,
1000
0000
0001
0100
0010
0000
0100
0010
,
1000
0001
0010
0001
0010
0100
0010
0000
,
1000
0100
1000
0001
0100
0001
0100
0000
,
1000
0000
0001
0010
0100
0000
0010
0100
,
1000
0100
1000
0001
0100
0001
0100
0000
,
1000
0100
1000
0001
0100
0001
0100
0000
,
0001
0100
0001
1000
0100
1000
0100
0000
,
1000
0100
1000
0001
0100
0001
0100
0000
,
0001
0100
0001
1000
0100
1000
0100
0000
,
1000
0100
1000
0001
0100
0001
0100
0000
,
0001
0100
0001
1000
0100
1000
0100
0000
,
0001
0100
0001
1000
0100
1000
0100
0000
,
0001
0000
1000
0000
0000
0000
0100
0000
,
1000
0000
0010
0000
0010
1000
0001
0000
,
1000
0000
0010
0000
0010
1000
0001
0000
,
1000
0000
0010
0000
0010
1000
0001
0000
,
1000
0000
0001
0000
0000
0000
0010
0100
,
0001
1000
0000
0000
0000
0000
0000
0000
,
0000
0000
0001
0000
0000
0000
0000
0000
,
0000
0000
0001
0000
0000
0000
0000
0000
,
;

//---------------dance-single - Heavy----------------
#NOTES:
     dance-single:
     Heavy:
     Hard:
     5:
     0.321220,0.378614,0.038902,0.007780,0.000000,289.000000,284.000000,5.000000,1.000000,0.000000,0.000000,0.321220,0.378614,0.038902,0.007780,0.000000,289.000000,284.000000,5.000000,1.000000,0.000000,0.000000:
0000
0000
0001
0000
0000
0000
0000
0000
,
0000
0000
0001
0000
0000
0000
0000
0000
,
0000
0000
0001
0000
0000
0000
0000
0000
,
0000
0000
0001
0000
0000
0000
0000
0000
,
0000
0000
0001
0000
0000
0000
0000
0000
,
0000
0000
1000
0000
0000
0000
0000
0000
,
0000
0000
0001
0000
0000
0000
0000
0000
,
0000
0000
0001
0000
0000
0000
0000
0000
,
0000
0000
1000
0000
0000
0000
0000
0000
,
0000
0000
1000
0000
0000
0000
0000
0000
,
0000
0000
1000
0000
0000
0000
0000
0000
,
0020
0000
1000
0000
0000
0000
0000
0000
,
0000
0000
0031
0000
0000
0000
0000
0000
,
0000
0000
0001
0000
0000
0000
0000
0000
,
0000
0000
1000
0000
0000
0000
0000
0000
,
0001
0000
1000
0000
0000
0000
0000
0000
,
0001
0000
1000
0000
0000
0000
0000
0000
,
1000
0010
1000
0001
1000
0100
0010
0100
,
0001
0100
0010
0100
0001
0010
0001
0100
,
1000
0100
0010
0100
1000
0010
1000
0100
,
0001
0010
0100
0010
0001
0100
0001
0010
,
1000
0100
0010
0100
1000
0010
1000
0100
,
1000
0100
0010
0100
1000
0010
1000
0100
,
0001
0100
0010
0100
0001
0010
0001
0100
,
1000
0010
0100
0010
1000
0100
1000
0010
,
1000
0000
0001
1000
1000
0100
1000
0000
,
1000
0000
0001
1000
1000
0100
1000
0000
,
1000
0000
0001
1000
1000
0100
1000
0000
,
1000
0000
0010
0000
0000
0100
0010
0000
,
1000
0000
0001
1000
1000
0100
1000
0000
,
1000
0000
0010
0000
0000
0100
0010
0000
,
1000
0001
0100
0001
0100
0010
0100
0010
,
1000
0000
1001
0000
0010
0000
0011
0000
,
1000
0000
1001
0000
0010
0000
0011
0000
,
1000
0000
0010
0100
0001
0000
1001
0000
,
1000
0010
1000
0001
1000
0100
0010
0100
,
1000
0000
0100
0010
0001
0100
0001
1000
,
0001
0000
0100
0010
1000
0100
1000
0001
,
0001
0000
0010
0100
1000
0010
1000
0001
,
1000
0010
1000
0001
1000
0100
0010
0100
,
0001
0100
0010
0100
0001
0010
0001
0100
,
1000
0000
0100
0010
0001
0100
0001
1000
,
0001
0100
0010
0100
0001
0010
0001
0100
,
1000
0010
0100
0010
1000
0100
1000
0010
,
1000
0010
0100
0010
1000
0100
1000
0010
,
0001
0100
0010
0100
0001
0010
0001
0100
,
1000
0100
0010
0100
1000
0010
1000
0100
,
0001
0100
0010
0100
0001
0010
0001
0100
,
1000
0100
0010
0100
1000
0010
1000
0100
,
1000
0100
0010
0100
1000
0010
1000
0100
,
1000
0000
0010
0000
0000
0100
0010
0000
,
1000
0000
0001
1000
1000
0100
1000
0000
,
1000
0000
0001
1000
1000
0100
1000
0000
,
1000
0000
0001
1000
1000
0100
1000
0000
,
0001
0000
0010
0000
0000
0001
0100
0001
,
1000
0100
0000
0000
0000
0000
0000
0000
,
0000
0000
0001
0000
0000
0000
0000
0000
,
0000
0000
1000
0000
0000
0000
0000
0000
,
;
