#TITLE:FNF BAD TIME;
#SUBTITLE:;
#ARTIST:Dancing Monkeys Project;
#TITLETRANSLIT:;
#SUBTITLETRANSLIT:;
#ARTISTTRANSLIT:;
#GENRE:;
#CREDIT:Gorilla v1.1.3 (Dancing Monkeys v1.06);
#BANNER:badtime.png;
#BACKGROUND:df4gilp-bd546eb9-6a6d-4dd8-8183-7116da7b73f6.png;
#LYRICSPATH:;
#CDTITLE:;
#MUSIC:onlymp3.to - FnF IndieCross BADTIME-XYtT9ZER5LU-192k-1696865642.mp3;
#OFFSET:-0.240042;
#SAMPLESTART:36.606709;
#SAMPLELENGTH:12.000000;
#SELECTABLE:YES;
#BPMS:0.000000=164.985992
;
#STOPS:
;
#BGCHANGES:0.000=New Project.avi=1.000=0=0=0=StretchNoLoop====,
99999=-nosongbg-=1.000=0=0=0 // don't automatically add -songbackground-
;
#KEYSOUNDS:;
#ATTACKS:;

//---------------dance-single - Basic----------------
#NOTES:
     dance-single:
     Basic:
     Easy:
     6:
     0.384741,0.340217,0.009517,0.019033,0.000000,283.000000,282.000000,1.000000,2.000000,0.000000,0.000000,0.384741,0.340217,0.009517,0.019033,0.000000,283.000000,282.000000,1.000000,2.000000,0.000000,0.000000:
2000
0000
3000
0010
,
1000
0100
0010
0100
,
1000
0100
0010
0100
,
1000
0100
0001
0200
,
0000
0300
0100
0010
,
0001
0100
0010
0100
,
1000
0001
0010
0100
,
0001
0100
0010
1000
,
0100
0010
1000
0010
,
1000
0001
0010
0100
,
0001
1000
0010
0100
,
1000
0001
0010
0100
,
0001
1000
0100
0010
,
1000
0001
0010
0100
,
0001
1000
0100
0010
,
1000
0001
0010
0001
,
1000
0010
1000
0100
,
0001
1000
0010
0100
,
0001
1000
0100
0010
,
1000
0001
0010
0100
,
1000
0001
0100
0100
,
1000
0001
0100
0100
,
0001
1000
0100
0100
,
0001
1000
0001
1000
,
0001
0010
0001
1000
,
0001
0100
0010
1000
,
0001
0010
0100
0001
,
1000
0010
1000
0100
,
0001
1000
0001
0100
,
0010
0001
1000
1001
,
0001
1000
0100
0010
,
1000
0001
1000
1000
,
0001
0001
0100
0100
,
1000
0001
1000
0100
,
1000
0001
0010
0010
,
0100
0001
0010
0100
,
1000
0001
0100
0100
,
1000
0001
0100
0100
,
0001
1000
0100
0100
,
0010
1000
0010
0100
,
0001
0100
0010
0100
,
1000
0001
0100
0100
,
1000
0001
0100
0100
,
0001
0100
0010
0100
,
0010
0001
0100
0100
,
1000
0100
0010
0100
,
0010
0001
1000
0100
,
0010
1000
0010
0100
,
1000
0001
0010
0100
,
1000
0001
1000
0001
,
1000
0001
1000
0001
,
1000
0001
1000
0001
,
1000
0001
1000
0001
,
1000
0001
1000
0010
,
0100
0001
0010
0100
,
1000
0100
0001
0100
,
1000
0001
1000
0010
,
0001
0100
0010
0100
,
1000
0010
1000
0010
,
1000
0001
0100
1000
,
0001
1000
0010
0001
,
0000
1000
0010
0100
,
1000
0001
0100
0100
,
1000
0001
0100
0001
,
1000
0001
1000
0010
,
1000
0001
0010
0100
,
1000
0001
0100
0001
,
1000
0001
0100
0100
,
1000
0001
1000
0010
,
0001
1000
0001
0100
,
1000
0100
0001
0010
,
0100
1000
0100
0000
;

//---------------dance-single - Basic----------------
#NOTES:
     dance-single:
     :
     Beginner:
     6:
     0.191691,0.169514,0.000000,0.019033,0.000000,141.000000,141.000000,0.000000,2.000000,0.000000,0.000000,0.191691,0.169514,0.000000,0.019033,0.000000,141.000000,141.000000,0.000000,2.000000,0.000000,0.000000:
2000
0000
3000
0000
,
1000
0000
0010
0000
,
1000
0000
0010
0000
,
1000
0000
0200
0000
,
0000
0300
0000
0010
,
0000
0100
0000
0100
,
0000
0001
0000
0100
,
0000
0100
0000
1000
,
0000
0010
0000
0010
,
0000
0001
0000
0100
,
0000
1000
0000
0100
,
0000
0001
0000
0100
,
0000
1000
0000
0010
,
0000
0001
0000
0100
,
0000
1000
0000
0010
,
0000
0001
0000
0001
,
0000
0010
0000
0100
,
0000
1000
0000
0100
,
0000
1000
0000
0010
,
0000
0001
0000
0100
,
0000
0001
0000
0100
,
0000
0001
0000
0100
,
0000
1000
0000
0100
,
0000
1000
0000
1000
,
0000
0010
0000
1000
,
0000
0100
0000
1000
,
0000
0010
0000
0001
,
0000
0010
0000
0100
,
0000
1000
0000
0100
,
0000
0001
0000
1000
,
0000
1000
0000
0010
,
0000
0001
0000
1000
,
0000
0001
0000
0100
,
0000
0001
0000
0100
,
0000
0001
0000
0010
,
0000
0001
0000
0100
,
0000
0001
0000
0100
,
0000
0001
0000
0100
,
0000
1000
0000
0100
,
0000
1000
0000
0100
,
0000
0100
0000
0100
,
0000
0001
0000
0100
,
0000
0001
0000
0100
,
0000
0100
0000
0100
,
0000
0001
0000
0100
,
0000
0100
0000
0100
,
0000
0001
0000
0100
,
0000
1000
0000
0100
,
0000
0001
0000
0100
,
0000
0001
0000
0100
,
0000
0001
0000
1000
,
0000
0010
0000
0001
,
0000
0100
0000
0001
,
0000
0100
0000
0010
,
0000
0001
0000
0100
,
0000
0010
0000
0100
,
0000
0001
0000
0010
,
0000
0100
0000
0100
,
0000
0010
0000
0100
,
0000
0001
0000
1000
,
0000
1000
0000
0001
,
0000
1000
0000
0100
,
0000
0001
0000
0100
,
0000
0001
0000
0001
,
0000
0001
0000
0010
,
0000
0001
0000
0100
,
0000
0001
0000
0001
,
0000
0001
0000
0100
,
0000
0001
0000
0010
,
0000
1000
0000
0100
,
0000
0100
0000
0010
,
0000
1000
0000
0000
;
