#VERSION:0.83;
#TITLE:DARNELL REMIX (feat. @blueballzzzz) - Friday Night Funkin';
#SUBTITLE:;
#ARTIST:Dancing Monkeys Project;
#TITLETRANSLIT:;
#SUBTITLETRANSLIT:;
#ARTISTTRANSLIT:;
#GENRE:;
#ORIGIN:;
#CREDIT:Gorilla v1.1.3 (Dancing Monkeys v1.06);
#BANNER:;
#BACKGROUND:;
#PREVIEWVID:;
#JACKET:;
#CDIMAGE:;
#DISCIMAGE:;
#LYRICSPATH:;
#CDTITLE:;
#MUSIC:DARNELL REMIX (feat. @blueballzzzz) - Friday Night Funkin'.mp3;
#OFFSET:-0.446871;
#SAMPLESTART:49.945370;
#SAMPLELENGTH:12.000000;
#SELECTABLE:YES;
#BPMS:0.000=160.005;
#STOPS:;
#DELAYS:;
#WARPS:;
#TIMESIGNATURES:0.000=4=4;
#TICKCOUNTS:0.000=4;
#COMBOS:0.000=1;
#SPEEDS:0.000=1.000=0.000=0;
#SCROLLS:0.000=1.000;
#FAKES:;
#LABELS:0.000=Song Start;
#BGCHANGES:;
#KEYSOUNDS:;
#ATTACKS:
;

//---------------dance-single - Basic----------------
#NOTEDATA:;
#CHARTNAME:Basic;
#STEPSTYPE:dance-single;
#DESCRIPTION:Basic;
#CHARTSTYLE:;
#DIFFICULTY:Easy;
#METER:2;
#RADARVALUES:0.336452,0.285174,0.000000,0.056751,0.000000,249.000000,249.000000,0.000000,6.000000,0.000000,0.000000,0.000000,0.000000,0.000000,0.336452,0.285174,0.000000,0.056751,0.000000,249.000000,249.000000,0.000000,6.000000,0.000000,0.000000,0.000000,0.000000,0.000000;
#CREDIT:Basic;
#NOTES:
1000
0010
0010
0100
,
1000
0010
1000
0100
,
0001
0010
0001
0010
,
1000
0100
0010
0100
,
1000
0100
0010
0001
,
1000
0010
0010
0001
,
0001
0010
0010
0001
,
1000
0010
1000
0100
,
2000
0000
3000
0001
,
0200
0000
0300
0010
,
2000
0000
3000
0100
,
2000
0000
3000
0010
,
1000
0001
0100
0010
,
1000
0100
0010
0001
,
1000
0010
0010
0010
,
0001
0100
0001
0010
,
1000
0100
0010
0001
,
1000
0010
0100
0010
,
1000
0100
0010
0001
,
0001
0010
0100
1000
,
0010
0100
0001
0010
,
1000
0100
0010
0001
,
1000
1000
1000
0001
,
0001
0001
0100
0100
,
1000
0010
1000
0100
,
1000
0100
0100
0010
,
1000
0100
0010
0001
,
0001
0010
1000
0100
,
1000
0010
1000
0100
,
1000
0100
0001
0010
,
0001
0010
0010
0001
,
1000
0100
0010
0001
,
1000
0010
0100
0001
,
1000
0100
0010
0001
,
1000
0100
0010
0001
,
1000
0010
0100
0010
,
1000
0100
0010
0001
,
0010
1000
0100
0001
,
0010
0100
0010
0001
,
0001
0010
0100
1000
,
0010
0100
0010
0001
,
1000
0010
0100
0001
,
0010
0001
0001
1000
,
1000
0010
0100
0001
,
0010
0010
1000
0001
,
0010
0100
0001
1000
,
0010
0100
1000
0001
,
0010
0100
0010
0001
,
0010
0100
0001
1000
,
0010
0100
1000
0001
,
0010
0100
0001
0001
,
1000
0010
0010
0001
,
0001
0010
0010
1000
,
1000
0010
0100
0010
,
1000
0010
0100
0001
,
0010
0100
1000
0100
,
0010
0100
0010
0001
,
0010
2000
0000
3000
,
0100
1000
0010
0001
,
0100
0100
0010
1000
,
0100
0100
0010
0100
,
0010
0001
0001
0100
,
0010
0100
1000
0010
,
0001
0100
0010
0001
,
2000
0000
0000
0000
,
0000
0000
0000
0000
,
0000
3000
0000
0010
,
0010
0000
0000
0000
;

//---------------dance-single - Basic----------------
#NOTEDATA:;
#CHARTNAME:;
#STEPSTYPE:dance-single;
#DESCRIPTION:Basic;
#CHARTSTYLE:;
#DIFFICULTY:Beginner;
#METER:2;
#RADARVALUES:0.172955,0.158430,0.000000,0.037834,0.000000,128.000000,128.000000,0.000000,4.000000,0.000000,0.000000,0.000000,0.000000,0.000000,0.172955,0.158430,0.000000,0.037834,0.000000,128.000000,128.000000,0.000000,4.000000,0.000000,0.000000,0.000000,0.000000,0.000000;
#CREDIT:;
#NOTES:
1000
0000
0010
0000
,
1000
0000
1000
0000
,
0001
0000
0001
0000
,
1000
0000
0010
0000
,
1000
0000
0010
0000
,
1000
0000
0010
0000
,
0001
0000
0010
0000
,
1000
0000
1000
0000
,
2000
0000
3000
0000
,
0200
0000
0300
0000
,
2000
0000
3000
0000
,
2000
0000
3000
0000
,
1000
0000
0100
0000
,
1000
0000
0010
0000
,
1000
0000
0010
0000
,
0001
0000
0001
0000
,
1000
0000
0010
0000
,
1000
0000
0100
0000
,
1000
0000
0010
0000
,
0001
0000
0100
0000
,
0010
0000
0001
0000
,
1000
0000
0010
0000
,
1000
0000
1000
0000
,
0001
0000
0100
0000
,
1000
0000
1000
0000
,
1000
0000
0100
0000
,
1000
0000
0010
0000
,
0001
0000
1000
0000
,
1000
0000
1000
0000
,
1000
0000
0001
0000
,
0001
0000
0010
0000
,
1000
0000
0010
0000
,
1000
0000
0100
0000
,
1000
0000
0010
0000
,
1000
0000
0010
0000
,
1000
0000
0100
0000
,
1000
0000
0010
0000
,
0010
0000
0100
0000
,
0010
0000
0010
0000
,
0001
0000
0100
0000
,
0010
0000
0010
0000
,
1000
0000
0100
0000
,
0010
0000
0001
0000
,
1000
0000
0100
0000
,
0010
0000
1000
0000
,
0010
0000
0001
0000
,
0010
0000
1000
0000
,
0010
0000
0010
0000
,
0010
0000
0001
0000
,
0010
0000
1000
0000
,
0010
0000
0001
0000
,
1000
0000
0010
0000
,
0001
0000
0010
0000
,
1000
0000
0100
0000
,
1000
0000
0100
0000
,
0010
0000
1000
0000
,
0010
0000
0010
0000
,
0100
0000
0000
0000
,
0100
0000
0010
0000
,
0100
0000
0010
0000
,
0100
0000
0001
0000
,
0010
0000
0001
0000
,
0010
0000
1000
0000
,
0001
0000
0010
0000
,
1000
0000
0000
0000
,
0010
0000
0000
0000
,
1000
0000
0000
0010
,
0010
0000
0000
0000
;
