#TITLE:Silly Billy;
#SUBTITLE:;
#ARTIST:Dancing Monkeys Project;
#TITLETRANSLIT:;
#SUBTITLETRANSLIT:;
#ARTISTTRANSLIT:;
#GENRE:;
#CREDIT:Gorilla v1.1.3 (Dancing Monkeys v1.06);
#BANNER:maxresdefault.png;
#BACKGROUND:maxresdefkault.png;
#LYRICSPATH:;
#CDTITLE:;
#MUSIC:silly billy.mp3;
#OFFSET:-0.658299;
#SAMPLESTART:36.735214;
#SAMPLELENGTH:12.000000;
#SELECTABLE:YES;
#BPMS:0.000000=172.964005
;
#STOPS:
;
#BGCHANGES:;
#KEYSOUNDS:;
#ATTACKS:;

//---------------dance-single - Basic----------------
#NOTES:
     dance-single:
     Basic:
     Easy:
     4:
     0.224282,0.320708,0.000000,0.175589,0.000000,152.000000,152.000000,0.000000,17.000000,0.000000,0.000000,0.224282,0.320708,0.000000,0.175589,0.000000,152.000000,152.000000,0.000000,17.000000,0.000000,0.000000:
0000
0000
0001
0000
,
0000
0000
1000
0000
,
0000
0000
0001
0000
,
0000
0000
1000
0000
,
0000
0000
0001
0000
,
0000
0000
0010
0000
,
0000
0000
1000
0100
,
0010
0010
0000
0100
,
1000
0001
0010
0010
,
1000
0100
1000
0001
,
0010
1000
0001
0100
,
1000
0100
1000
0010
,
0100
1000
0001
0100
,
1000
0100
1000
0010
,
0100
0001
0001
0020
,
0030
2000
0000
0000
,
3000
0000
0000
0000
,
0000
0000
0000
0020
,
0000
0000
0000
0000
,
0000
0000
0030
2000
,
0000
0000
0000
0000
,
0000
3000
0000
0002
,
0000
0000
0000
0000
,
0000
0000
0000
0023
,
0000
0000
0000
0000
,
0000
0000
0030
0200
,
0000
0000
0000
0000
,
0000
0000
0300
0002
,
0000
0000
0000
0000
,
0003
0000
0000
2000
,
0000
0000
0000
0000
,
3000
0100
0000
0200
,
0000
0000
0000
0300
,
0000
0010
0000
0200
,
0000
0000
0000
0000
,
0000
0000
0000
0000
,
0000
0000
0000
0000
,
0000
0300
0000
0002
,
0000
0000
0000
0000
,
0003
0000
0100
0020
,
0030
2000
0000
0000
,
3000
1000
0100
0020
,
0000
1000
0000
1000
,
0000
1000
0000
1000
,
0000
1000
0000
1000
,
0000
1000
0030
0100
,
0010
1000
0001
0100
,
0001
0100
1000
0100
,
0001
0010
0100
1000
,
0200
0000
0000
0300
,
1000
0001
0100
0010
,
1000
0010
1000
0100
,
0001
0100
1000
0010
,
0001
0010
0001
0010
,
1000
0100
1000
0010
,
0001
0100
0010
0100
,
1000
0001
0100
0010
,
0001
0001
1000
0100
,
1000
0010
0001
0100
,
1000
0100
0001
0010
,
1000
0010
0001
0010
,
0010
1000
0001
0100
,
0001
0010
0100
0100
,
0100
1000
0001
0100
,
0001
1000
1000
0100
,
1000
1000
0001
0001
,
1000
1000
0001
0001
,
1000
0001
1000
0001
,
0200
0000
0000
0000
,
0300
0000
0000
0000
;

//---------------dance-single - Standard----------------
#NOTES:
     dance-single:
     Standard:
     Medium:
     5:
     0.293632,0.412118,0.072301,0.000000,0.000000,199.000000,192.000000,7.000000,0.000000,0.000000,0.000000,0.293632,0.412118,0.072301,0.000000,0.000000,199.000000,192.000000,7.000000,0.000000,0.000000,0.000000:
0000
0000
0000
0000
0000
0000
0000
0000
,
0000
0000
0000
0000
0000
0000
0000
0000
,
0000
0000
0000
0000
0000
0000
0000
0000
,
0000
0000
0000
0000
0000
0000
0000
0000
,
0000
0000
0000
0000
0000
0000
0000
0000
,
0000
0000
0000
0000
0000
0000
0000
0000
,
0000
0000
0000
0000
1000
0000
0000
0000
,
0000
0000
0000
0000
1000
0000
0001
0000
,
0001
0000
0100
0000
1000
0000
1000
0000
,
0001
0000
0010
0000
1000
0000
0010
0000
,
0000
0000
1000
0000
0100
0000
0010
0000
,
0001
0000
0010
0000
1000
0000
0010
0000
,
0000
0000
1000
0000
0100
0000
0010
0000
,
0001
0000
0010
0000
1000
0000
0010
0000
,
0001
0000
0100
0000
1000
0000
1000
0000
,
0001
0000
1000
0000
1000
0000
0010
0000
,
0000
0000
0000
0000
0000
0000
0000
1000
,
0001
0000
0010
0000
0001
0000
0100
0000
,
0000
0000
1000
0000
0100
0000
0010
0000
,
0001
0000
0010
0000
0001
0000
0100
0000
,
1000
0000
0001
0000
0010
0000
0100
0000
,
0001
0000
0010
0000
0001
0000
0100
0000
,
0001
0000
0010
0000
1000
0000
0010
0000
,
0001
0000
0100
0000
1000
0000
1000
0000
,
1000
0000
0001
0000
0010
0000
0100
0000
,
0110
0000
0001
0000
0100
0000
0010
0010
,
1000
0000
0001
0000
0010
0000
0100
0000
,
0001
0000
0010
0000
0001
0000
0100
0000
,
0001
0000
0010
0000
1000
0000
0010
0000
,
0001
0000
0010
0000
0001
0000
0100
0000
,
1000
0000
0001
0000
0010
0000
0100
0000
,
0000
0000
1000
0000
0100
0000
0010
0000
,
0000
0000
1000
0000
0100
0000
0010
0000
,
0110
0000
0001
0000
0100
0000
0010
0000
,
0110
0000
0001
0000
0100
0000
0010
0000
,
0110
0000
1000
0000
0100
0000
0010
0000
,
0110
0000
0001
0000
0010
0000
0001
0000
,
0001
0000
0000
0000
0100
0000
0010
0000
,
0000
0000
1000
0000
0100
0000
0010
0000
,
0001
0000
0000
0000
0010
0000
0000
0000
,
1000
0000
0010
0000
0101
0000
0001
0000
,
0001
0000
0010
0000
0001
0000
0100
0000
,
1000
0000
0010
0000
1000
0000
0100
0000
,
0001
0000
0010
0000
1000
0000
0010
0000
,
0001
0000
0100
0000
0000
0000
0001
0000
,
0000
0000
1000
0000
0100
0000
0010
0000
,
0000
0000
1000
0000
0100
0000
0010
0000
,
0001
0000
0000
0000
0100
0000
0010
0000
,
0000
0000
0000
0000
0000
0000
1000
0000
,
1001
0000
0001
0000
1000
0000
0010
0000
,
0001
0000
0000
0000
0000
0000
1000
0000
,
1000
0000
0000
0000
0000
0000
0001
0000
,
1000
0000
0000
0000
0000
0000
0001
0000
,
0000
0000
0000
0000
1000
0000
0010
0000
,
0001
0000
0000
0000
0000
0000
1000
0000
,
0001
0000
0000
0000
0000
0000
0010
0000
,
0001
0000
0000
0000
0000
0000
1000
0000
,
0001
0000
0000
0000
0100
0000
0010
0000
,
0001
0000
0000
0000
0010
0000
0000
0000
,
0001
0000
0000
0000
0000
0000
1000
0000
,
0001
0000
0000
0000
0010
0000
0000
0000
,
0000
0000
1000
0000
0100
0000
0010
0000
,
1000
0000
0000
0000
0100
0000
0010
0000
,
0000
0000
1000
0000
0100
0000
0010
0000
,
0001
0000
0000
0000
0100
0000
0010
0000
,
0001
0000
0000
0000
0010
0000
0000
0000
,
1000
0000
0000
0000
0010
0000
0000
0000
,
;

//---------------dance-single - Heavy----------------
#NOTES:
     dance-single:
     Heavy:
     Hard:
     6:
     0.357080,0.482612,0.072301,0.000000,0.000000,242.000000,235.000000,7.000000,0.000000,0.000000,0.000000,0.357080,0.482612,0.072301,0.000000,0.000000,242.000000,235.000000,7.000000,0.000000,0.000000,0.000000:
0000
0000
0000
0000
1000
0000
0000
0000
,
0000
0000
0000
0000
0001
0000
0000
0000
,
0000
0000
0000
0000
1000
0000
0000
0000
,
0000
0000
0000
0000
0001
0000
0000
0000
,
0000
0000
0000
0000
1000
0000
0000
0000
,
0000
0000
0000
0000
0001
0000
0000
0000
,
0000
0000
0000
0000
0001
0000
0000
0000
,
0000
0000
0000
0000
0001
0000
0100
0010
,
0001
0000
1000
0000
0100
0000
0100
0000
,
0001
0000
0100
0000
0001
0000
0100
0000
,
0001
0000
0010
0000
0100
0000
0010
0000
,
0001
0000
0100
0000
0001
0000
0100
0000
,
0001
0000
0010
0000
0100
0000
0010
0000
,
0001
0000
0100
0000
0001
0000
0100
0000
,
0001
0000
1000
0000
0100
0000
0100
0000
,
1000
0000
0010
0000
0010
0000
0100
0000
,
0000
0000
0000
0000
0001
0000
0000
0100
,
1000
0000
0001
0000
0100
0000
0010
0100
,
0001
0000
0010
0000
0100
0000
0010
0000
,
1000
0000
0001
0000
0100
0000
0010
0100
,
1000
0000
0100
0000
1000
0000
0010
1000
,
1000
0000
0001
0000
0100
0000
0010
0100
,
0001
0000
0100
0000
0001
0000
0100
0000
,
0001
0000
1000
0000
0100
0000
0100
0000
,
1000
0000
0100
0000
1000
0000
0010
0000
,
0110
0000
1000
0000
0100
0010
0001
0001
,
1000
0000
0100
0000
1000
0000
0010
1000
,
1000
0000
0001
0000
0100
0000
0010
0100
,
0001
0000
0100
0000
0001
0000
0100
0000
,
1000
0000
0001
0000
0100
0000
0010
0100
,
1000
0000
0100
0000
1000
0000
0010
1000
,
0001
0000
0010
0000
0100
0000
0010
0000
,
0000
0000
0001
0000
0010
0000
0100
0000
,
0110
0000
1000
0000
0100
0010
0001
0000
,
0110
0000
1000
0000
0010
0100
0001
0000
,
0110
0000
1000
0000
0100
0010
0001
0000
,
1010
0000
1000
0000
0001
0000
0100
0000
,
0001
0000
0000
0000
0100
0000
0001
0000
,
0001
0000
0010
0000
0100
0000
0010
0000
,
1000
0000
0000
0000
0100
0000
0010
0000
,
1000
0000
0100
0000
1001
0000
1000
0000
,
1000
0000
0001
0000
0100
0000
0010
0100
,
0001
0000
1000
0000
0100
0000
0010
0100
,
0001
0000
0100
0000
0001
0000
0100
0000
,
1000
0000
0100
0000
0000
0000
1000
0000
,
0001
0000
0010
0000
0100
0000
0010
0000
,
0001
0000
0100
0000
0010
0000
0100
0000
,
0001
0000
0000
0000
0100
0000
0001
0000
,
0000
0000
0000
0000
0000
0000
0001
0000
,
1001
0000
1000
0000
0010
0100
0000
0000
,
1000
0000
0000
0000
0010
0000
0100
0000
,
1000
0000
0000
0000
0010
0000
0100
0000
,
0001
0000
0000
0000
0100
0000
0010
0000
,
0000
0000
0000
0000
1000
0000
0100
0000
,
1000
0000
0000
0000
0010
0000
0100
0000
,
0001
0000
0000
0010
0000
0000
0100
0000
,
1000
0000
0000
0000
0010
0000
0100
0000
,
0001
0000
0000
0000
0100
0000
0001
0000
,
1000
0000
0000
0000
0100
0000
0010
0000
,
1000
0000
0000
0000
0010
0000
0100
0000
,
1000
0000
0000
0000
0100
0000
0010
0000
,
0001
0000
0010
0000
0100
0000
0010
0000
,
0001
0000
0000
0000
1000
0000
0100
0000
,
0001
0000
0010
0000
0100
0000
0010
0000
,
0001
0000
0000
0000
0100
0000
0001
0000
,
1000
0000
0000
0000
0100
0000
0010
0000
,
1000
0000
0000
0000
0010
0000
0100
0000
,
;

//---------------dance-single - Basic----------------
#NOTES:
     dance-single:
     :
     Beginner:
     4:
     0.118043,0.178171,0.000000,0.165260,0.000000,80.000000,80.000000,0.000000,16.000000,0.000000,0.000000,0.118043,0.178171,0.000000,0.165260,0.000000,80.000000,80.000000,0.000000,16.000000,0.000000,0.000000:
// measure 0
0000
0000
0001
0000
,  // measure 1
0000
0000
1000
0000
,  // measure 2
0000
0000
0001
0000
,  // measure 3
0000
0000
1000
0000
,  // measure 4
0000
0000
0001
0000
,  // measure 5
0000
0000
0010
0000
,  // measure 6
0000
0000
1000
0000
,  // measure 7
0010
0000
0000
0100
,  // measure 8
0000
0001
0000
0010
,  // measure 9
0000
0100
0000
0001
,  // measure 10
0000
1000
0000
0100
,  // measure 11
0000
0010
0000
0100
,  // measure 12
0000
1000
0000
0010
,  // measure 13
0000
0100
0000
0010
,  // measure 14
0000
0001
0000
0010
,  // measure 15
0000
2000
0000
0000
,  // measure 16
3000
0000
0000
0000
,  // measure 17
0000
0000
0000
0020
,  // measure 18
0000
0000
0000
0000
,  // measure 19
0000
0000
0030
2000
,  // measure 20
0000
0000
0000
0000
,  // measure 21
0000
3000
0000
0002
,  // measure 22
0000
0000
0000
0000
,  // measure 23
0000
0000
0000
0023
,  // measure 24
0000
0000
0000
0000
,  // measure 25
0000
0000
0030
0200
,  // measure 26
0000
0000
0000
0000
,  // measure 27
0000
0000
0300
0002
,  // measure 28
0000
0000
0000
0000
,  // measure 29
0003
0000
0000
2000
,  // measure 30
0000
0000
0000
0000
,  // measure 31
0000
3000
0000
0200
,  // measure 32
0000
0000
0000
0000
,  // measure 33
0300
0000
0000
0200
,  // measure 34
0000
0000
0000
0000
,  // measure 35
0000
0000
0000
0000
,  // measure 36
0000
0000
0000
0000
,  // measure 37
0000
0300
0000
0002
,  // measure 38
0000
0000
0000
0000
,  // measure 39
0003
0000
0020
0000
,  // measure 40
0030
2000
0000
0000
,  // measure 41
0000
3000
0000
0020
,  // measure 42
0000
0000
0000
0000
,  // measure 43
0000
0000
0000
0000
,  // measure 44
0000
0000
0000
0000
,  // measure 45
0000
0000
0030
0000
,  // measure 46
0010
0000
0001
0000
,  // measure 47
0001
0000
1000
0000
,  // measure 48
0001
0000
0100
0000
,  // measure 49
0200
0000
0000
0300
,  // measure 50
0000
0001
0000
0100
,  // measure 51
0000
0010
0000
0100
,  // measure 52
0000
0010
0000
0100
,  // measure 53
0000
0010
0000
0100
,  // measure 54
0000
0010
0000
0100
,  // measure 55
0000
0010
0000
0100
,  // measure 56
0000
0001
0000
0100
,  // measure 57
0000
0001
0000
0100
,  // measure 58
0000
0010
0000
1000
,  // measure 59
0000
0100
0000
0010
,  // measure 60
0000
0100
0000
0001
,  // measure 61
0000
1000
0000
0100
,  // measure 62
0000
0010
0000
0100
,  // measure 63
0000
1000
0000
0100
,  // measure 64
0000
1000
0000
0100
,  // measure 65
0000
1000
0000
0001
,  // measure 66
0000
1000
0000
0010
,  // measure 67
0000
0100
0000
0200
,  // measure 68
0000
0000
0000
0000
,  // measure 69
0300
0000
0000
0000
;
