#VERSION:0.83;
#TITLE:FNF MONOCHROME;
#SUBTITLE:;
#ARTIST:Dancing Monkeys Project;
#TITLETRANSLIT:;
#SUBTITLETRANSLIT:;
#ARTISTTRANSLIT:;
#GENRE:;
#ORIGIN:;
#CREDIT:Gorilla v1.1.3 (Dancing Monkeys v1.06);
#BANNER:download.png;
#BACKGROUND:maxresdefault.png;
#PREVIEWVID:;
#JACKET:;
#CDIMAGE:;
#DISCIMAGE:;
#LYRICSPATH:;
#CDTITLE:;
#MUSIC:onlymp3.to - Friday Night Funkin Lullaby Monochrome Remix -mEBrI7acI10-192k-1708062773.mp3;
#OFFSET:-0.034292;
#SAMPLESTART:39.034294;
#SAMPLELENGTH:12.000000;
#SELECTABLE:YES;
#BPMS:0.000=160.000;
#STOPS:;
#DELAYS:;
#WARPS:;
#TIMESIGNATURES:0.000=4=4;
#TICKCOUNTS:0.000=4;
#COMBOS:0.000=1;
#SPEEDS:0.000=1.000=0.000=0;
#SCROLLS:0.000=1.000;
#FAKES:;
#LABELS:0.000=Song Start;
#BGCHANGES:;
#KEYSOUNDS:;
#ATTACKS:
;

//---------------dance-single - Basic----------------
#NOTEDATA:;
#CHARTNAME:Basic;
#STEPSTYPE:dance-single;
#DESCRIPTION:Basic;
#CHARTSTYLE:;
#DIFFICULTY:Easy;
#METER:4;
#RADARVALUES:0.360875,0.287939,0.000000,0.006665,0.000000,379.000000,379.000000,0.000000,1.000000,0.000000,0.000000,0.000000,0.000000,0.000000,0.360875,0.287939,0.000000,0.006665,0.000000,379.000000,379.000000,0.000000,1.000000,0.000000,0.000000,0.000000,0.000000,0.000000;
#CREDIT:Basic;
#NOTES:
0000
1000
0001
1000
,
0001
1000
0001
1000
,
0001
1000
0001
1000
,
0001
1000
0001
1000
,
0001
1000
0001
1000
,
0001
1000
0001
1000
,
0001
1000
0001
1000
,
0001
1000
0100
0010
,
0001
1000
0100
0010
,
0001
1000
0010
0100
,
1000
0010
0100
0010
,
1000
0010
1000
0001
,
1000
0010
1000
0010
,
0001
0010
0001
0100
,
0001
0100
0001
0010
,
1000
0010
1000
0100
,
1000
0100
0001
0010
,
1000
0100
0010
0001
,
0010
1000
0001
1000
,
0001
1000
0001
0100
,
1000
0100
0010
0001
,
1000
0010
0100
1000
,
0010
0001
0100
0001
,
1000
0010
1000
1000
,
0001
0010
0100
0100
,
0010
0001
0001
0010
,
0100
1000
0001
0100
,
1000
0010
1000
0100
,
1000
0100
0010
0001
,
1000
0010
1000
0001
,
1000
0010
0000
0010
,
0001
0010
1000
0100
,
0001
1000
0010
0100
,
1000
0001
0010
0100
,
1000
0001
0100
0010
,
1000
0001
0010
0001
,
1000
0001
0010
0100
,
1000
0010
0001
0010
,
0001
1000
0010
0100
,
1000
0001
0100
0010
,
1000
0100
0010
0100
,
0001
1000
0100
0010
,
0000
1000
0001
0010
,
0100
0001
1000
0010
,
0100
0001
1000
0001
,
0010
1000
0001
1000
,
0010
0001
1000
0001
,
1000
0100
0010
0001
,
0010
1000
0100
0100
,
1000
0010
1000
0100
,
0001
1000
0100
0100
,
1000
1000
0100
0100
,
0001
0010
0100
0100
,
1000
0010
1000
1000
,
0001
1000
0010
0010
,
0001
1000
0010
0100
,
1000
0001
0100
0010
,
1000
0100
0001
0010
,
0100
1000
0001
0100
,
0001
0001
0010
0100
,
0001
0100
1000
0001
,
0001
0001
1000
1000
,
0001
1000
0100
0010
,
1000
0010
1000
0100
,
0010
0001
0100
0001
,
1000
0010
1000
0100
,
0001
0010
0001
0100
,
0001
1000
0001
0100
,
0001
0100
0001
0100
,
1000
0001
0010
0001
,
1000
0001
0100
0001
,
1000
0010
0100
0010
,
1000
0010
0100
1000
,
0001
0100
0001
0100
,
1000
0010
1000
0010
,
0001
0001
1000
1000
,
1000
0010
1000
1000
,
1000
0010
0100
1000
,
1000
0001
0010
0001
,
0001
1000
0100
0010
,
1000
0010
1000
0010
,
0001
1000
0100
0010
,
1000
0010
1000
0001
,
1000
0100
1000
0010
,
1000
0001
0100
0010
,
1000
0010
1000
0100
,
1000
0010
1000
0001
,
1000
0001
1000
0100
,
0001
0010
0100
0010
,
1000
0010
0001
0010
,
1000
0100
0010
0001
,
0100
1000
0010
0010
,
1000
0100
0010
0001
,
1000
0010
1000
0010
,
0001
0100
1000
0010
,
2000
0000
0000
3000
,
0001
0000
0000
0000
;

//---------------dance-single - Basic----------------
#NOTEDATA:;
#CHARTNAME:;
#STEPSTYPE:dance-single;
#DESCRIPTION:Basic;
#CHARTSTYLE:;
#DIFFICULTY:Beginner;
#METER:4;
#RADARVALUES:0.183770,0.191959,0.000000,0.006665,0.000000,193.000000,193.000000,0.000000,1.000000,0.000000,0.000000,0.000000,0.000000,0.000000,0.183770,0.191959,0.000000,0.006665,0.000000,193.000000,193.000000,0.000000,1.000000,0.000000,0.000000,0.000000,0.000000,0.000000;
#CREDIT:;
#NOTES:
0000
1000
0000
0001
,
0000
1000
0000
0001
,
0000
1000
0000
0001
,
0000
1000
0000
0001
,
0000
1000
0000
0001
,
0000
1000
0000
0001
,
0000
1000
0000
0001
,
0000
1000
0000
0010
,
0000
1000
0000
0010
,
0000
1000
0000
0100
,
0000
0001
0000
0010
,
0000
0100
0000
0001
,
0000
0010
0000
0100
,
0000
0010
0000
0100
,
0000
1000
0001
0000
,
1000
0000
0001
0000
,
1000
0000
0001
0000
,
1000
0000
0010
0000
,
0010
0000
0001
0000
,
0010
0000
0001
0000
,
0010
0000
0010
0000
,
1000
0000
0100
0000
,
0010
0000
0100
0000
,
1000
0000
0010
0000
,
0001
0000
0100
0000
,
0010
0000
0001
0000
,
0100
0000
0001
0000
,
1000
0000
1000
0000
,
1000
0000
0010
0000
,
1000
0000
1000
0000
,
1000
0000
0010
0000
,
0001
0000
1000
0000
,
0001
1000
0000
0100
,
0000
0001
0000
0100
,
0000
0001
0000
0010
,
0000
0001
0000
0100
,
0000
0001
0000
0100
,
0000
0010
0000
0010
,
0000
1000
0000
0100
,
0000
0001
0000
0010
,
1000
0000
0010
0000
,
0001
0000
0100
0000
,
0100
0000
0001
0000
,
0100
0000
1000
0000
,
0100
0000
1000
0000
,
0010
0000
0001
0000
,
0001
0000
0100
0000
,
1000
0000
0010
0000
,
0001
0000
1000
0000
,
0100
0000
0010
0000
,
0001
1000
0000
0010
,
0000
0001
0100
0000
,
0001
0000
0100
0000
,
1000
0000
0010
0000
,
0001
0000
0010
0000
,
0001
0000
0010
0000
,
1000
0000
0100
0000
,
1000
0000
0001
0000
,
0100
0000
0001
0000
,
0001
0000
0010
0000
,
0001
0000
1000
0000
,
0001
0000
1000
0000
,
0001
0000
0100
0000
,
1000
0000
1000
0000
,
0010
0000
0100
0000
,
1000
0000
1000
0000
,
0001
0000
0001
0000
,
0001
0000
0001
0000
,
0001
0000
0001
0000
,
1000
0000
0010
0000
,
1000
0000
0100
0000
,
1000
0000
0100
0000
,
1000
0000
0100
0000
,
0001
0000
0001
0000
,
1000
0000
1000
0000
,
0001
0000
1000
0000
,
1000
0000
1000
0000
,
1000
0000
0100
0000
,
1000
0000
0010
0000
,
0001
1000
0000
0010
,
0000
0010
0000
0010
,
0000
1000
0000
0010
,
0000
0010
0000
0001
,
0000
0100
0000
0010
,
0000
0001
0000
0010
,
0000
0010
0000
0100
,
0000
0010
0000
0001
,
0000
0001
0000
0100
,
0000
0010
0000
0010
,
0000
0010
0000
0010
,
0000
0100
0000
0001
,
0000
1000
0000
0010
,
0000
0100
0000
0001
,
0000
0010
0000
0010
,
0000
0100
0000
0020
,
0000
0000
0000
0000
,
0030
0000
0000
0000
;
