#TITLE:FNF IGNITION;
#SUBTITLE:;
#ARTIST:Dancing Monkeys Project;
#TITLETRANSLIT:;
#SUBTITLETRANSLIT:;
#ARTISTTRANSLIT:;
#GENRE:;
#CREDIT:Gorilla v1.1.3 (Dancing Monkeys v1.06);
#BANNER:m.png;
#BACKGROUND:maxresdefault.png;
#LYRICSPATH:;
#CDTITLE:;
#MUSIC:onlymp3.to - Ignition Fanchart-8o6rJvjKiD4-192k-1708174398.mp3;
#OFFSET:-0.244375;
#SAMPLESTART:40.273540;
#SAMPLELENGTH:12.000000;
#SELECTABLE:YES;
#BPMS:0.000000=155.886002
;
#STOPS:
;
#BGCHANGES:0.000=videoplayback.mp4=1.000=0=0=0=StretchNoLoop====,
99999=-nosongbg-=1.000=0=0=0 // don't automatically add -songbackground-
;
#KEYSOUNDS:;
#ATTACKS:;

//---------------dance-single - Basic----------------
#NOTES:
     dance-single:
     Basic:
     Easy:
     4:
     0.325270,0.301098,0.013883,0.048592,0.000000,328.000000,326.000000,2.000000,7.000000,0.000000,0.000000,0.325270,0.301098,0.013883,0.048592,0.000000,328.000000,326.000000,2.000000,7.000000,0.000000,0.000000:
0000
0000
0000
0000
,
0000
2000
0000
0000
,
0000
3000
0001
0000
,
0001
0010
0100
0010
,
1000
0010
1000
0001
,
1000
0010
0001
0100
,
1000
0100
0001
0010
,
1000
0010
0001
0100
,
0010
0100
1000
0001
,
1000
0010
0001
0100
,
1000
0010
0001
0100
,
1000
0001
0100
0010
,
0001
1000
0100
0100
,
0001
1000
1000
0010
,
0001
1000
1000
0010
,
1000
0001
0001
0100
,
0001
1000
0100
0001
,
0010
0100
1000
0010
,
1000
0001
0010
0100
,
0001
1000
0010
0100
,
0001
0100
0001
0010
,
1000
0010
0001
0100
,
0001
0100
1000
0001
,
1000
0010
0001
0100
,
1000
0010
1000
0001
,
1000
0010
0001
0100
,
1000
0001
0100
0010
,
1000
0100
1000
0100
,
0001
0010
0100
0010
,
1000
0100
1000
0100
,
0001
1000
0100
0010
,
1000
0100
1000
0100
,
0001
0010
0100
0010
,
1000
0100
1000
0010
,
1000
0001
0100
1000
,
0010
0100
0001
1000
,
0010
0100
1000
0001
,
0010
0100
1000
0010
,
0001
0100
1000
0001
,
1000
0001
0010
1000
,
0001
0010
1000
0001
,
1000
0010
0001
0100
,
1000
0010
0100
0010
,
0001
0010
0100
1000
,
0001
0100
0010
1000
,
0100
0010
1000
0001
,
0010
0100
1000
0001
,
1000
0001
0010
1000
,
0001
0010
1000
0100
,
0010
0001
0100
1000
,
0001
0100
2000
0000
,
3000
0200
0000
0300
,
0010
2000
0000
3000
,
0001
2000
0000
3000
,
0001
2000
0000
3000
,
0001
2000
0000
3000
,
1000
0001
0010
0100
,
0010
1001
0010
0100
,
0100
0001
0100
0010
,
0010
1000
0001
1000
,
1000
0010
0010
1000
,
1000
0010
0100
0010
,
1000
1000
0100
0001
,
0001
1000
0001
1000
,
0001
0010
0100
1000
,
0001
0010
0100
0010
,
1000
0010
0100
0010
,
0001
0010
0100
0010
,
0001
0010
0100
0010
,
0001
0100
0001
0100
,
0001
0010
0100
0010
,
1000
0100
1000
0100
,
0001
1001
1000
0010
,
1000
0010
0100
0001
,
1000
0010
0100
0010
,
1000
0100
1000
0010
,
0001
0100
0010
0010
,
1000
0010
1000
0010
,
1000
0001
0100
1000
,
1000
0001
1000
0100
,
0010
0001
1000
0100
,
0010
0001
0010
1000
,
0010
0100
0001
1000
,
0010
0100
0001
0010
,
0100
1000
0001
0010
,
0100
1000
0010
0001
,
0100
0001
0010
1000
;

//---------------dance-single - Basic----------------
#NOTES:
     dance-single:
     :
     Beginner:
     4:
     0.161643,0.180138,0.000000,0.048592,0.000000,163.000000,163.000000,0.000000,7.000000,0.000000,0.000000,0.161643,0.180138,0.000000,0.048592,0.000000,163.000000,163.000000,0.000000,7.000000,0.000000,0.000000:
0000
0000
0000
0000
,
0000
2000
0000
0000
,
0000
0000
0000
0000
,
3000
0000
0100
0000
,
1000
0000
1000
0000
,
1000
0000
0001
0000
,
1000
0000
0001
0000
,
1000
0000
0001
0000
,
0010
0000
1000
0000
,
1000
0000
0001
0000
,
1000
0000
0001
0000
,
1000
0000
0100
0000
,
0001
0000
0100
0000
,
0001
0000
1000
0000
,
0001
0000
1000
0000
,
1000
0000
0001
0000
,
0001
0000
0100
0000
,
0010
0000
1000
0000
,
1000
0000
0010
0000
,
0001
0000
0010
0000
,
0001
0000
0001
0000
,
1000
0000
0001
0000
,
0001
0000
1000
0000
,
1000
0000
0001
0000
,
1000
0000
1000
0000
,
1000
0000
0001
0000
,
1000
0000
0100
0000
,
1000
0000
1000
0000
,
0001
0000
0100
0000
,
1000
0000
1000
0000
,
0001
1000
0000
0010
,
0000
0010
0000
0100
,
0000
0010
0000
0010
,
0000
0000
1000
0000
,
1000
0000
0100
0000
,
0010
0000
0001
0000
,
0010
0000
1000
0000
,
0010
0000
1000
0000
,
0001
0000
1000
0000
,
1000
0000
0010
0000
,
0001
0000
1000
0001
,
1000
0000
0001
0000
,
1000
0000
0100
0000
,
0001
0000
0100
0000
,
0001
0000
0010
0000
,
0100
0000
1000
0000
,
0010
0000
1000
0000
,
1000
0000
0010
0000
,
0001
0000
1000
0000
,
0010
0000
0100
0000
,
0001
0000
2000
0000
,
3000
0200
0000
0300
,
0000
2000
0000
3000
,
0000
0002
0000
0003
,
0000
2000
0000
3000
,
0000
0020
0000
0000
,
0030
0000
0010
0000
,
0100
0000
0010
0000
,
1000
0000
0100
0000
,
0010
0000
0001
0000
,
1000
0000
0010
0000
,
1000
0000
0100
0000
,
1000
0000
0100
0000
,
0010
0000
1000
0000
,
0001
0000
0100
0000
,
0001
0000
1000
0000
,
0010
0000
0100
0000
,
0001
0000
0100
0000
,
0001
0000
0100
0000
,
1000
0000
0010
0000
,
1000
0000
0100
0000
,
0001
0000
1000
0000
,
0010
0000
1000
0000
,
0001
0000
0100
0000
,
1000
0000
0100
0000
,
1000
0000
1000
0000
,
0001
0000
0010
0000
,
0100
0000
0001
0000
,
1000
0000
0100
0000
,
0001
0000
1000
0000
,
0010
0000
1000
0000
,
0010
0000
0010
0000
,
0010
0000
0001
0000
,
0010
0000
0001
0000
,
0100
0000
0001
0000
,
0100
0000
0010
0000
,
0100
0000
0010
0000
;
