#VERSION:0.83;
#TITLE:FNF - Rivals DEMO - Catfight (by nasadotexe) - [FC4k];
#SUBTITLE:;
#ARTIST:Dancing Monkeys Project;
#TITLETRANSLIT:;
#SUBTITLETRANSLIT:;
#ARTISTTRANSLIT:;
#GENRE:;
#ORIGIN:;
#CREDIT:Gorilla v1.1.3 (Dancing Monkeys v1.06);
#BANNER:maxreksdefault.png;
#BACKGROUND:mqdefault.png;
#PREVIEWVID:;
#JACKET:;
#CDIMAGE:;
#DISCIMAGE:;
#LYRICSPATH:;
#CDTITLE:;
#MUSIC:FNF - Rivals DEMO - Catfight (by nasadotexe) - [FC4k].mp3;
#OFFSET:-1.214331;
#SAMPLESTART:36.871471;
#SAMPLELENGTH:12.000000;
#SELECTABLE:YES;
#BPMS:0.000=164.100;
#STOPS:;
#DELAYS:;
#WARPS:;
#TIMESIGNATURES:0.000=4=4;
#TICKCOUNTS:0.000=4;
#COMBOS:0.000=1;
#SPEEDS:0.000=1.000=0.000=0;
#SCROLLS:0.000=1.000;
#FAKES:;
#LABELS:0.000=Song Start;
#BGCHANGES:;
#KEYSOUNDS:;
#ATTACKS:
;

//---------------dance-single - ----------------
#NOTEDATA:;
#CHARTNAME:;
#STEPSTYPE:dance-single;
#DESCRIPTION:;
#CHARTSTYLE:;
#DIFFICULTY:Easy;
#METER:1;
#RADARVALUES:0.182644,0.202018,0.000000,0.011623,0.000000,220.000000,220.000000,0.000000,2.000000,0.000000,0.000000,0.000000,0.000000,0.000000,0.182644,0.202018,0.000000,0.011623,0.000000,220.000000,220.000000,0.000000,2.000000,0.000000,0.000000,0.000000,0.000000,0.000000;
#CREDIT:;
#NOTES:
0000
0000
0000
0000
,
0000
0000
0000
0000
,
0000
0000
0000
1000
,
1000
0000
0010
0010
,
0010
0000
1000
0000
,
0010
0100
0000
0100
,
0000
1000
1000
0000
,
0010
0000
0010
0000
,
0000
1000
0000
0000
,
0010
0010
0010
0010
,
1000
1000
0000
0010
,
0010
0000
1000
1000
,
0000
0001
0001
0000
,
0100
0100
0000
0010
,
0010
0000
2000
0000
,
0000
0000
3000
0000
,
0001
0000
0010
0010
,
0010
0010
0000
0000
,
1000
0100
0000
0010
,
0010
0000
0000
0000
,
0001
0001
0010
0010
,
0010
0000
0000
1000
,
0100
0001
0001
0001
,
0000
0000
0000
0010
,
0100
0001
0001
0001
,
0010
0000
1000
0000
,
0100
0000
0001
0000
,
1000
0000
1000
0000
,
0001
0000
0010
0000
,
0100
0000
1000
0000
,
0010
0000
0100
0000
,
0001
0000
0010
0000
,
1000
0000
0010
0001
,
0001
0010
1000
1000
,
0010
0001
0001
0010
,
0010
1000
0100
0100
,
0001
1000
1000
0010
,
0001
0010
0010
1000
,
0010
0100
1000
1000
,
0010
0100
0001
0001
,
1000
0001
0010
0001
,
1000
1000
0010
0001
,
0001
0001
0010
1000
,
0010
0010
1000
1000
,
0010
0001
0001
0010
,
1000
1000
0010
0100
,
0001
0001
0010
0100
,
1000
1000
0010
0100
,
0000
0001
0000
0010
,
0000
0100
0000
1000
,
0000
0010
0000
0100
,
0000
0001
0001
0001
,
0000
2000
0000
3000
,
0000
0100
0000
0001
,
0000
1000
0000
0010
,
0000
1000
0000
0010
,
0000
0100
0000
0001
,
0000
0010
0000
1000
,
0000
0010
0000
0100
,
0000
1000
0000
0010
,
0000
0100
0000
0001
,
0000
1000
0000
0010
,
0000
0000
0100
0100
,
0001
0010
0010
0001
,
1000
1000
0010
0010
,
1000
1000
0100
0001
,
0010
0010
0100
1000
,
1000
0010
0010
0001
,
1000
0010
0100
0001
,
0010
1000
0010
0010
,
1000
0001
0010
0001
,
0001
0010
1000
1000
,
0010
0100
1000
0001
,
0001
0010
0010
0001
,
1000
0001
0001
0010
,
0010
1000
1000
0001
,
0001
0010
0010
1000
,
1000
0100
0000
0000
;

//---------------dance-single - ----------------
#NOTEDATA:;
#CHARTNAME:;
#STEPSTYPE:dance-single;
#DESCRIPTION:;
#CHARTSTYLE:;
#DIFFICULTY:Beginner;
#METER:1;
#RADARVALUES:0.081359,0.084628,0.000000,0.000000,0.000000,98.000000,98.000000,0.000000,0.000000,0.000000,0.000000,0.000000,0.000000,0.000000,0.081359,0.084628,0.000000,0.000000,0.000000,98.000000,98.000000,0.000000,0.000000,0.000000,0.000000,0.000000,0.000000,0.000000;
#CREDIT:;
#NOTES:
// measure 0
0000
0000
0000
0000
,  // measure 1
0000
0000
0000
0000
,  // measure 2
0000
0000
0000
1000
,  // measure 3
0000
0000
0010
0000
,  // measure 4
0010
0000
1000
0000
,  // measure 5
0010
0000
0000
0100
,  // measure 6
0000
1000
0000
0000
,  // measure 7
0010
0000
0010
0000
,  // measure 8
0000
1000
0000
0000
,  // measure 9
0010
0000
0010
0000
,  // measure 10
1000
0000
0000
0010
,  // measure 11
0000
0000
1000
0000
,  // measure 12
0000
0001
0000
0000
,  // measure 13
0100
0000
0000
0010
,  // measure 14
0000
0000
1000
0000
,  // measure 15
0000
0000
0000
0000
,  // measure 16
0001
0000
0010
0000
,  // measure 17
0010
0000
0000
0000
,  // measure 18
1000
0000
0000
0010
,  // measure 19
0000
0000
0000
0000
,  // measure 20
0001
0000
0010
0000
,  // measure 21
0010
0000
0000
1000
,  // measure 22
0000
0001
0000
0001
,  // measure 23
0000
0000
0000
0010
,  // measure 24
0000
0001
0000
0001
,  // measure 25
0000
0000
1000
0000
,  // measure 26
0100
0000
0001
0000
,  // measure 27
1000
0000
1000
0000
,  // measure 28
0001
0000
0010
0000
,  // measure 29
0100
0000
1000
0000
,  // measure 30
0010
0000
0100
0000
,  // measure 31
0001
0000
0010
0000
,  // measure 32
1000
0000
0010
0000
,  // measure 33
0001
0000
1000
0000
,  // measure 34
0010
0000
0001
0000
,  // measure 35
0010
0000
0100
0000
,  // measure 36
0001
0000
1000
0000
,  // measure 37
0001
0000
0010
0000
,  // measure 38
0010
0000
1000
0000
,  // measure 39
0010
0000
0001
0000
,  // measure 40
1000
0000
0010
0000
,  // measure 41
1000
0000
0010
0000
,  // measure 42
0001
0000
1000
0000
,  // measure 43
0010
0000
1000
0000
,  // measure 44
0010
0000
0001
0000
,  // measure 45
1000
0000
0010
0000
,  // measure 46
0001
0000
0010
0000
,  // measure 47
1000
0000
0010
0000
,  // measure 48
0000
0001
0000
0010
,  // measure 49
0000
0100
0000
1000
,  // measure 50
0000
0010
0000
0100
,  // measure 51
0000
0001
0000
0001
,  // measure 52
0000
1000
0000
0000
,  // measure 53
0000
0100
0000
0001
,  // measure 54
0000
1000
0000
0010
,  // measure 55
0000
1000
0000
0010
,  // measure 56
0000
0100
0000
0001
,  // measure 57
0000
0010
0000
1000
,  // measure 58
0000
0010
0000
0000
;
