#TITLE:Bubbles - Friday Night Funkin'_ Girls Night Out OST (FLP);
#SUBTITLE:;
#ARTIST:Dancing Monkeys Project;
#TITLETRANSLIT:;
#SUBTITLETRANSLIT:;
#ARTISTTRANSLIT:;
#GENRE:;
#CREDIT:Gorilla v1.1.3 (Dancing Monkeys v1.06);
#BANNER:;
#BACKGROUND:;
#LYRICSPATH:;
#CDTITLE:;
#MUSIC:Bubbles - Friday Night Funkin'_ Girls Night Out OST (FLP).mp3;
#OFFSET:-0.414127;
#SAMPLESTART:39.415306;
#SAMPLELENGTH:12.000000;
#SELECTABLE:YES;
#BPMS:0.000000=159.994995
;
#STOPS:
;
#BGCHANGES:;
#KEYSOUNDS:;
#ATTACKS:;

//---------------dance-single - Basic----------------
#NOTES:
     dance-single:
     Basic:
     Easy:
     3:
     0.332934,0.291050,0.000000,0.007127,0.000000,327.000000,327.000000,0.000000,1.000000,0.000000,0.000000,0.332934,0.291050,0.000000,0.007127,0.000000,327.000000,327.000000,0.000000,1.000000,0.000000,0.000000:
// measure 0
0000
0000
0000
0010
,  // measure 1
0000
0000
0000
0010
,  // measure 2
0000
0000
0000
0010
,  // measure 3
0000
0000
0000
0001
,  // measure 4
0000
0000
1000
0000
,  // measure 5
0000
0010
0000
0000
,  // measure 6
0100
0000
0000
0010
,  // measure 7
0000
0000
0000
1000
,  // measure 8
0100
1000
0010
1000
,  // measure 9
0001
0100
0100
0010
,  // measure 10
0001
0100
1000
1000
,  // measure 11
0001
0010
1000
0100
,  // measure 12
0010
1000
0010
1000
,  // measure 13
0001
0100
0100
1000
,  // measure 14
0001
0100
1000
1000
,  // measure 15
0001
0010
1000
1000
,  // measure 16
0010
0010
0010
1000
,  // measure 17
1000
0100
0100
0001
,  // measure 18
0001
0001
1000
1000
,  // measure 19
0001
0001
0001
0010
,  // measure 20
0100
1000
1000
1000
,  // measure 21
0100
0100
0100
0100
,  // measure 22
0001
0001
1000
1000
,  // measure 23
0010
0010
0010
0001
,  // measure 24
0001
1000
0010
1000
,  // measure 25
0001
0010
1000
0001
,  // measure 26
0100
1000
0010
1000
,  // measure 27
0001
0010
1000
0001
,  // measure 28
0100
1000
0010
1000
,  // measure 29
0100
0001
1000
0001
,  // measure 30
0001
0010
0010
1000
,  // measure 31
0100
0100
1000
0001
,  // measure 32
0010
1000
0010
1000
,  // measure 33
0010
0100
1000
0001
,  // measure 34
0001
0001
0010
0010
,  // measure 35
0010
1000
1000
0001
,  // measure 36
0001
1000
1000
1000
,  // measure 37
0001
0001
0001
0010
,  // measure 38
0010
0100
1000
0100
,  // measure 39
0001
0010
1000
0100
,  // measure 40
0001
1000
0010
1000
,  // measure 41
0001
0010
0100
1000
,  // measure 42
0001
1000
1000
1000
,  // measure 43
0010
0010
0010
0100
,  // measure 44
0100
0100
0010
0010
,  // measure 45
0010
1000
0100
0010
,  // measure 46
0001
0100
1000
1000
,  // measure 47
0001
0010
1000
0100
,  // measure 48
0001
1000
0010
1000
,  // measure 49
0001
0010
0100
0010
,  // measure 50
0001
0100
1000
1000
,  // measure 51
0001
0100
0010
0001
,  // measure 52
0100
1000
0010
1000
,  // measure 53
0001
1000
0100
0000
,  // measure 54
0001
1000
0010
0001
,  // measure 55
0010
0100
1000
0001
,  // measure 56
0010
1000
0010
1000
,  // measure 57
0100
0010
1000
0001
,  // measure 58
0100
1000
0010
1000
,  // measure 59
0010
0100
1000
0001
,  // measure 60
0001
0010
0100
1000
,  // measure 61
0100
0010
0001
0010
,  // measure 62
0100
1000
0010
1000
,  // measure 63
0010
0100
1000
0001
,  // measure 64
0100
0001
0010
0100
,  // measure 65
0010
0100
1000
0001
,  // measure 66
0100
1000
0010
1000
,  // measure 67
0001
0010
1000
0000
,  // measure 68
0001
0010
0100
1000
,  // measure 69
1000
0010
0001
1000
,  // measure 70
0010
0100
0010
1000
,  // measure 71
0001
0010
0100
0100
,  // measure 72
0000
0000
0000
0000
,  // measure 73
0000
0000
0000
0000
,  // measure 74
1000
0001
1000
0001
,  // measure 75
1000
0001
1000
0001
,  // measure 76
1000
0001
1000
0001
,  // measure 77
1000
0001
1000
0001
,  // measure 78
1000
0001
1000
0001
,  // measure 79
1000
0001
1000
0001
,  // measure 80
1000
0001
1000
0001
,  // measure 81
1000
0001
0100
0100
,  // measure 82
1000
0001
1000
0001
,  // measure 83
1000
0001
1000
0001
,  // measure 84
1000
0001
1000
0001
,  // measure 85
1000
0001
1000
0001
,  // measure 86
1000
0001
0010
0010
,  // measure 87
1000
0100
0010
0001
,  // measure 88
0010
0100
1000
0100
,  // measure 89
0010
0001
0010
0020
,  // measure 90
0000
0000
0000
0030
;

//---------------dance-single - Basic----------------
#NOTES:
     dance-single:
     :
     Beginner:
     3:
     0.000000,0.000000,0.000000,0.000000,0.000000,0.000000,0.000000,0.000000,0.000000,0.000000,0.000000,0.000000,0.000000,0.000000,0.000000,0.000000,0.000000,0.000000,0.000000,0.000000,0.000000,0.000000:
;
