#TITLE:17bucks UST - Bikini Bottom Bounce;
#SUBTITLE:;
#ARTIST:Dancing Monkeys Project;
#TITLETRANSLIT:;
#SUBTITLETRANSLIT:;
#ARTISTTRANSLIT:;
#GENRE:;
#CREDIT:Gorilla v1.1.3 (Dancing Monkeys v1.06);
#BANNER:maxresdefault.png;
#BACKGROUND:artworks-y5nmd6cZxeyTttDg-hc9RqA-t500x500.png;
#LYRICSPATH:;
#CDTITLE:;
#MUSIC:17bucks UST - Bikini Bottom Bounce.mp3;
#OFFSET:-0.458753;
#SAMPLESTART:40.447414;
#SAMPLELENGTH:12.000000;
#SELECTABLE:YES;
#BPMS:0.000000=150.042999
;
#STOPS:
;
#BGCHANGES:;
#KEYSOUNDS:;
#ATTACKS:;

//---------------dance-single - Basic----------------
#NOTES:
     dance-single:
     Basic:
     Easy:
     6:
     0.334718,0.266322,0.000000,0.000000,0.000000,193.000000,193.000000,0.000000,0.000000,0.000000,0.000000,0.334718,0.266322,0.000000,0.000000,0.000000,193.000000,193.000000,0.000000,0.000000,0.000000,0.000000:
0000
0000
0000
0001
,
0100
0100
0001
0001
,
0001
0001
0100
0001
,
0100
1000
0100
0001
,
0010
0100
1000
0100
,
0010
0001
0001
0100
,
1000
0010
0100
0001
,
0010
1000
0100
0001
,
0010
0100
0100
1000
,
0010
0001
0100
1000
,
0010
0100
1000
1000
,
0001
1000
0100
0010
,
0010
0001
0010
1000
,
0100
0001
0001
0010
,
0010
0100
0100
1000
,
1000
1000
0100
0001
,
0010
0100
0010
1000
,
0010
0100
0001
0001
,
0100
1000
0010
1000
,
0100
1000
0100
0001
,
0010
0010
1000
1000
,
0100
0001
0001
0010
,
0001
0010
0100
0010
,
0100
1000
0001
0100
,
0010
0001
1000
1000
,
0010
0001
0010
1000
,
0001
1000
0100
0001
,
1000
0001
0010
0100
,
0010
0001
1000
0100
,
0010
0001
0010
0100
,
0100
0001
1000
0010
,
0100
0001
0100
1000
,
0001
1000
0010
0001
,
1000
0001
0010
1000
,
0001
1000
0100
0001
,
0001
1000
0010
0001
,
1000
0001
0100
1000
,
0001
1000
0010
0001
,
1000
0001
0100
1000
,
0001
1000
0010
0100
,
0100
1000
0001
0010
,
0100
0001
0001
0010
,
0100
1000
0100
0001
,
0010
1000
0100
0010
,
1000
0100
1000
1000
,
0010
0001
0100
0010
,
0001
1000
0100
0001
,
0100
1000
1000
0100
,
0001
0100
0010
1000
;

//---------------dance-single - Basic----------------
#NOTES:
     dance-single:
     :
     Beginner:
     6:
     0.088449,0.117758,0.000000,0.000000,0.000000,51.000000,51.000000,0.000000,0.000000,0.000000,0.000000,0.088449,0.117758,0.000000,0.000000,0.000000,51.000000,51.000000,0.000000,0.000000,0.000000,0.000000:
// measure 0
0000
0000
0000
0001
,  // measure 1
0000
0000
0001
0000
,  // measure 2
1000
0000
0000
0000
,  // measure 3
1000
0000
0000
0000
,  // measure 4
0010
0000
0000
0000
,  // measure 5
0010
0000
0000
0000
,  // measure 6
1000
0000
0000
0000
,  // measure 7
0010
0000
0000
0000
,  // measure 8
0010
0000
0000
0000
,  // measure 9
0010
0000
0000
0000
,  // measure 10
0010
0000
0000
0000
,  // measure 11
0001
0000
0000
0000
,  // measure 12
0010
0000
0000
0000
,  // measure 13
0100
0000
0000
0000
,  // measure 14
0010
0000
0000
0000
,  // measure 15
1000
0000
0000
0000
,  // measure 16
0010
0000
0000
0000
,  // measure 17
0010
0000
0000
0000
,  // measure 18
0100
0000
0000
0000
,  // measure 19
0100
0000
0000
0000
,  // measure 20
0010
0000
0000
0000
,  // measure 21
0100
0000
0000
0000
,  // measure 22
0001
0000
0000
0000
,  // measure 23
0100
0000
0000
0000
,  // measure 24
0010
0000
0000
0000
,  // measure 25
0010
0000
1000
0000
,  // measure 26
0000
0000
0100
0000
,  // measure 27
0000
0000
0010
0000
,  // measure 28
0000
0000
1000
0000
,  // measure 29
0000
0000
0010
0000
,  // measure 30
0000
0000
1000
0000
,  // measure 31
0000
0000
0100
0000
,  // measure 32
0000
0000
0010
0000
,  // measure 33
0000
0000
0010
0000
,  // measure 34
0000
0000
0100
0000
,  // measure 35
0000
0000
0010
0000
,  // measure 36
0000
0000
0100
0000
,  // measure 37
0000
0000
0010
0000
,  // measure 38
0000
0000
0100
0000
,  // measure 39
0000
0000
0010
0000
,  // measure 40
0000
0000
0001
0000
,  // measure 41
0000
0000
0001
0000
,  // measure 42
0000
0000
0100
0000
,  // measure 43
0000
0000
0100
0000
,  // measure 44
0000
0000
1000
0000
,  // measure 45
0000
0000
0100
0000
,  // measure 46
0000
0000
0100
0000
,  // measure 47
0000
0000
1000
0000
,  // measure 48
0001
0000
0010
0000
;
