#TITLE:FNF Bedrock;
#SUBTITLE:;
#ARTIST:Dancing Monkeys Project;
#TITLETRANSLIT:;
#SUBTITLETRANSLIT:;
#ARTISTTRANSLIT:;
#GENRE:;
#CREDIT:Gorilla v1.1.3 (Dancing Monkeys v1.06);
#BANNER:maxresdefault.png;
#BACKGROUND:mjaxresdefault.png;
#LYRICSPATH:;
#CDTITLE:;
#MUSIC:onlymp3.to - Bedrock Friday Night Funkin Vs Cheeky Official OST -Bh9jXJT65sw-192k-1708063038.mp3;
#OFFSET:-0.057938;
#SAMPLESTART:41.595192;
#SAMPLELENGTH:12.000000;
#SELECTABLE:YES;
#BPMS:0.000000=156.005005
;
#STOPS:
;
#BGCHANGES:;
#KEYSOUNDS:;
#ATTACKS:;

//---------------dance-single - Basic----------------
#NOTES:
     dance-single:
     Basic:
     Easy:
     3:
     0.178904,0.313591,0.004079,0.212120,0.000000,307.000000,306.000000,1.000000,52.000000,0.000000,0.000000,0.178904,0.313591,0.004079,0.212120,0.000000,307.000000,306.000000,1.000000,52.000000,0.000000,0.000000:
0000
0000
0000
0000
,
0000
0000
0000
0010
,
0000
0020
0000
0000
,
0000
0030
0000
0001
,
0000
2000
0000
0001
,
0000
3000
0000
0001
,
1000
0000
1000
0100
,
0001
0100
0000
0000
,
1000
0000
1000
0100
,
1000
0010
0010
1000
,
1000
0000
1000
0100
,
0001
0100
0000
0000
,
1000
0000
1000
0100
,
1000
0010
0010
1000
,
1000
0001
0000
0100
,
1000
1010
1000
0001
,
0010
1000
1000
0010
,
1000
0001
0010
0010
,
1000
0001
0000
0100
,
0100
0010
0100
0001
,
0010
1000
1000
0010
,
1000
0001
0010
0010
,
1000
0001
0000
0100
,
1000
0010
1000
0100
,
0010
1000
1000
0010
,
1000
0001
0010
0010
,
1000
0001
0000
0100
,
0100
0010
0100
1000
,
0010
1000
1000
0010
,
1000
0001
0010
0010
,
1000
0001
0000
0100
,
1000
0010
1000
0100
,
0010
1000
1000
0010
,
1000
0001
0010
0010
,
1000
0001
0000
0100
,
0100
0010
0100
1000
,
0010
1000
1000
0010
,
1000
0001
0010
0010
,
1000
0000
1000
0100
,
0001
0100
0000
0000
,
1000
0000
1000
0100
,
1000
0010
0010
1000
,
1000
0000
1000
0100
,
0001
0100
0000
0000
,
1000
0000
1000
0100
,
1000
0010
0010
1000
,
0001
0000
0010
0100
,
0001
0100
1000
0001
,
0010
1000
1000
0010
,
1000
0001
0010
0010
,
1000
0001
0000
0100
,
0100
0010
0100
0001
,
0100
1000
1000
0010
,
1000
0010
0002
0010
,
0000
0000
0000
0000
,
0000
1000
0000
0010
,
0000
1000
0000
0000
,
0003
2000
0000
0000
,
0000
3000
0010
0100
,
0000
0001
0010
0100
,
1000
0002
0000
0000
,
0000
1000
0000
0100
,
0000
0203
0000
0000
,
0000
2300
0000
0100
,
0000
0100
0000
0000
,
3000
2000
0000
0100
,
0000
3000
0010
0100
,
1000
0100
0010
0000
,
1000
0100
0010
0000
,
0001
0002
0000
0000
,
0000
0023
0000
1000
,
0000
1000
0000
0000
,
2030
0001
0000
0000
,
3000
0100
0000
0000
,
0000
1000
0000
0000
,
0000
0001
0000
0000
,
2000
0001
0000
0000
,
0000
3000
0000
0000
,
0000
0020
0000
0000
,
0000
0031
0001
0000
,
0000
0200
0000
0010
,
0000
1000
0000
0300
,
0000
0002
0000
0000
,
0000
1003
1000
0000
,
0000
1000
1000
0000
,
0000
0001
0001
0000
,
0000
0000
0000
0000
,
0000
1000
0000
0000
,
0000
0001
0000
0000
,
0000
0200
0000
0000
,
0000
1000
0000
0000
,
0000
1000
0000
0010
,
0000
0001
0000
0010
,
0000
0300
0000
0010
,
0000
2000
0000
0100
,
0000
3002
0000
0010
,
0000
0003
0000
0000
,
0000
2000
0000
0000
,
0000
3000
1000
0000
,
1000
1000
0000
0000
,
0000
0020
0000
0000
,
0000
2030
0000
0000
,
0000
3002
0000
0000
,
0000
1000
0000
0003
,
0000
0200
0000
0000
,
0000
0000
0300
0001
,
0002
0000
0000
0010
,
0000
0203
0000
0000
,
0000
1300
1000
0000
,
0000
1000
1000
0000
,
0000
0020
0000
0000
,
0000
0230
0000
0000
,
0000
0320
0000
0000
,
0000
0031
0001
0000
,
0000
0002
0000
0000
,
0000
0203
0000
0000
,
0000
2300
0000
0000
,
0000
3001
0001
0000
,
0000
0002
0000
0000
,
0000
1000
0003
0000
,
2000
0001
0000
0000
,
0000
3020
0000
0000
,
0000
1000
0000
0000
,
0000
1000
0000
0000
,
0000
0230
0000
0000
,
0000
0302
0000
0000
,
0000
2003
0000
0000
,
0000
3200
0000
0000
,
0000
1300
1000
0000
,
0000
0000
0000
0000
,
0000
0200
0000
0000
,
0000
2300
0000
0000
,
0000
3001
0001
0000
,
0000
0001
0001
0000
,
0000
0020
0000
0000
,
0000
0032
0000
0000
,
0000
0003
0000
0000
,
0000
0000
0000
0000
,
0000
0200
0000
0000
,
0000
0001
0000
0000
,
0000
0320
0000
0000
,
0000
0230
0000
0000
,
0000
0300
0000
0000
,
0000
0001
0000
0000
,
0000
0002
0000
0000
,
0000
0023
0000
0000
,
0000
1030
1000
0000
,
0000
2000
0000
0000
,
0000
3200
0000
0000
,
0000
0302
0000
0010
,
0000
0023
0000
0001
,
0000
2030
0000
0001
,
0000
0000
0000
0001
,
0000
3000
0000
0010
;

//---------------dance-single - Basic----------------
#NOTES:
     dance-single:
     :
     Beginner:
     3:
     0.081002,0.085664,0.000000,0.044872,0.000000,139.000000,139.000000,0.000000,11.000000,0.000000,0.000000,0.081002,0.085664,0.000000,0.044872,0.000000,139.000000,139.000000,0.000000,11.000000,0.000000,0.000000:
0000
0000
0000
0000
,
0000
0000
0000
0010
,
0000
0020
0000
0000
,
0000
0030
0000
1000
,
0000
2000
0000
0000
,
0000
3000
0000
0001
,
0000
0000
1000
0000
,
0001
0000
0010
0000
,
1000
0000
1000
0000
,
1000
0000
0010
0000
,
1000
0000
1000
0000
,
0001
0000
0010
0000
,
1000
0000
1000
0000
,
1000
0000
0010
0000
,
1000
0000
0010
0000
,
1000
0000
1000
0000
,
0010
0000
1000
0000
,
1000
0000
0010
0000
,
1000
0000
0010
0000
,
0100
0000
0100
0000
,
0010
0000
1000
0000
,
1000
0000
0010
0000
,
1000
0000
0010
0000
,
1000
0000
1000
0000
,
0010
0000
1000
0000
,
1000
0000
0010
0000
,
1000
0000
0010
0000
,
0100
0000
0100
0000
,
0010
0000
1000
0000
,
1000
0000
0010
0000
,
1000
0000
0010
0000
,
1000
0000
0010
0000
,
0010
0000
1000
0000
,
1000
0000
0010
0000
,
1000
0000
0010
0000
,
0100
0000
0100
0000
,
0010
0000
1000
0000
,
0010
0000
0010
0000
,
1000
0000
1000
0000
,
0001
0000
0010
0000
,
1000
0000
1000
0000
,
1000
0000
0010
0000
,
1000
0000
1000
0000
,
0001
0000
0010
0000
,
1000
0000
1000
0000
,
1000
0000
0010
0000
,
0001
0000
0010
0000
,
0001
0000
1000
0000
,
0010
0000
1000
0000
,
1000
0000
0010
0000
,
1000
0000
0010
0000
,
1000
0000
0100
0000
,
0001
0000
1000
0000
,
1000
0000
0010
0000
,
1000
0000
0010
0000
,
0100
0000
0100
0000
,
0010
0000
1000
0000
,
0010
0000
1000
0000
,
0010
0000
0010
0000
,
0100
0000
0010
0000
,
1000
0002
0000
0000
,
0000
0000
0000
0000
,
0003
0200
0000
0000
,
0300
2000
0000
0000
,
0000
0000
0000
0000
,
3000
0020
0000
0000
,
0000
0030
0000
0100
,
0000
0100
0000
0000
,
1000
0000
0010
0000
,
0001
0000
0001
0000
,
0010
0000
0020
0000
,
0000
0000
0000
0030
,
0000
0001
0000
0010
,
0000
0100
0000
0010
,
0000
1000
0000
0010
,
0000
0010
0000
2000
,
0000
0000
0000
0000
,
0000
3000
0000
0010
,
0000
0020
0000
0000
,
0000
0030
0000
0100
,
0000
0200
0000
0000
,
0000
0000
0000
0300
,
0000
0002
0000
0000
,
0000
0000
0003
0000
,
1000
0000
0000
0000
;
