#TITLE:BACKSTABBED - Friday Night Funkin (FANSONG);
#SUBTITLE:;
#ARTIST:Dancing Monkeys Project;
#TITLETRANSLIT:;
#SUBTITLETRANSLIT:;
#ARTISTTRANSLIT:;
#GENRE:;
#CREDIT:Gorilla v1.1.3 (Dancing Monkeys v1.06);
#BANNER:maxresdefault.png;
#BACKGROUND:maxresdefault - Copy.png;
#LYRICSPATH:;
#CDTITLE:;
#MUSIC:BACKSTABBED - Friday Night Funkin (FANSONG).mp3;
#OFFSET:-1.600204;
#SAMPLESTART:44.678299;
#SAMPLELENGTH:12.000000;
#SELECTABLE:YES;
#BPMS:0.000000=155.996002
;
#STOPS:
;
#BGCHANGES:;
#KEYSOUNDS:;
#ATTACKS:;

//---------------dance-single - Basic----------------
#NOTES:
     dance-single:
     Basic:
     Easy:
     3:
     0.240595,0.204655,0.000000,0.000000,0.000000,262.000000,262.000000,0.000000,0.000000,0.000000,0.000000,0.240595,0.204655,0.000000,0.000000,0.000000,262.000000,262.000000,0.000000,0.000000,0.000000,0.000000:
1000
0000
0000
0000
,
0000
0000
0000
0000
,
0000
0000
0000
0000
,
0010
0000
0100
0000
,
1000
0000
0010
0000
,
0001
0001
0001
0001
,
1000
1000
0000
0000
,
0000
0010
0010
0000
,
1000
1000
0100
0010
,
1000
0010
0010
1000
,
1000
0100
0100
0010
,
1000
0010
0010
1000
,
1000
1000
0100
0010
,
1000
0010
0010
0010
,
1000
0100
0001
1000
,
0001
0010
0001
0001
,
1000
0100
0001
1000
,
0001
0010
0001
0001
,
1000
0100
0001
1000
,
0001
0010
0001
0001
,
1000
0100
0001
1000
,
1000
0001
1000
1000
,
0001
0001
0001
0001
,
1000
0100
0001
1000
,
0001
1000
0001
1000
,
0010
0100
0001
1000
,
0001
0010
0001
0001
,
1000
0100
0001
1000
,
1000
1000
0100
0010
,
1000
0010
0010
1000
,
1000
0100
0100
0010
,
1000
0010
0010
1000
,
1000
0100
0100
0010
,
1000
0010
0010
1000
,
1000
0100
0100
0010
,
1000
0001
1000
0001
,
1000
0001
0001
0100
,
0100
0100
1000
1000
,
1000
1000
0100
0010
,
1000
0100
0010
0001
,
0001
0100
1000
0100
,
0001
0100
0010
1000
,
0100
1000
0010
0001
,
1000
0100
0010
0001
,
0001
0100
1000
0100
,
0010
0100
0010
0010
,
0001
1000
0010
0100
,
1000
0001
0100
0010
,
0001
0100
0100
0010
,
0001
0010
0100
0100
,
0001
1000
1000
0100
,
0001
1000
1000
0010
,
0001
0100
0100
0010
,
0001
0010
0010
0100
,
0001
0100
0100
0010
,
0001
1000
0001
0010
,
0000
1000
1000
0100
,
0001
0000
0001
0010
,
0001
0100
0100
0010
,
0001
0100
0100
0100
,
0000
1000
1000
0010
,
0100
0100
0010
0010
,
1000
0001
1000
0001
,
1000
1000
0010
0100
,
0001
1000
0010
0100
,
0001
0010
1000
0010
,
0100
0001
1000
0010
,
0100
0001
1000
0010
,
0100
0001
0100
1000
,
0001
0010
1000
0010
,
0100
0001
1000
0010
;

//---------------dance-single - Basic----------------
#NOTES:
     dance-single:
     :
     Beginner:
     3:
     0.129480,0.117313,0.000000,0.006428,0.000000,141.000000,141.000000,0.000000,1.000000,0.000000,0.000000,0.129480,0.117313,0.000000,0.006428,0.000000,141.000000,141.000000,0.000000,1.000000,0.000000,0.000000:
1000
0000
0000
0000
,
0001
0000
0000
0000
,
1000
0000
0000
0000
,
0010
0000
0100
0000
,
1000
0000
0100
0000
,
1000
0000
1000
0000
,
0100
0000
0100
0000
,
0010
0000
0010
0000
,
1000
0000
0100
0000
,
1000
0000
0010
0000
,
1000
0000
0100
0000
,
1000
0000
0010
0000
,
1000
0000
0100
0000
,
1000
0000
0010
0000
,
1000
0000
0001
0000
,
1000
0000
0001
0000
,
1000
0000
0001
0000
,
1000
0000
0001
0000
,
1000
0000
0010
0000
,
0001
0000
0010
0000
,
1000
0000
0001
0000
,
1000
0000
0010
0000
,
0001
0000
0001
0000
,
1000
0000
0001
0000
,
0100
0000
0001
0000
,
0010
0000
0001
0000
,
0001
0000
0001
0000
,
1000
0000
0001
0000
,
1000
0000
0100
0000
,
1000
0000
0010
0000
,
1000
0000
0100
0000
,
1000
0000
0010
0000
,
1000
0000
0100
0000
,
1000
0000
0010
0000
,
1000
0000
0100
0000
,
1000
0000
1000
0000
,
1000
0000
0001
0100
,
0000
0100
0000
1000
,
0000
1000
0000
0010
,
0000
0100
0000
0001
,
0000
0100
0000
0001
,
0000
0100
0000
1000
,
0000
0010
0000
0001
,
0000
0100
0000
0001
,
0000
0100
0000
0100
,
0000
0100
0000
0010
,
0000
1000
0000
0100
,
0000
0001
0000
0010
,
0000
0100
0000
0010
,
0000
0010
0000
0100
,
0000
1000
0000
0100
,
0000
1000
0000
0010
,
0000
0100
0000
0010
,
0000
0010
0000
0100
,
0000
0100
0000
0010
,
0000
1000
0000
0010
,
0000
1000
0000
0100
,
0000
0001
0000
0010
,
0000
0100
0000
0010
,
0000
0100
0000
0100
,
0000
1000
0000
0010
,
0000
0100
0000
0010
,
0000
0001
0000
0001
,
0000
1000
0000
0100
,
0000
1000
0000
0100
,
0000
0010
0000
0100
,
0000
0001
0000
0010
,
0000
0001
0000
0010
,
0000
0001
0000
1000
,
0000
0010
0000
0010
,
0000
0001
0000
0200
,
0000
0000
0000
0000
,
0000
0000
0000
0300
,
0100
0000
0000
0000
;
