#VERSION:0.83;
#TITLE:FNF 17 Badniks [17 Bucks Eggman Song (ft. Metal Sonic)] (FLP);
#SUBTITLE:;
#ARTIST:Dancing Monkeys Project;
#TITLETRANSLIT:;
#SUBTITLETRANSLIT:;
#ARTISTTRANSLIT:;
#GENRE:;
#ORIGIN:;
#CREDIT:Gorilla v1.1.3 (Dancing Monkeys v1.06);
#BANNER:;
#BACKGROUND:;
#PREVIEWVID:;
#JACKET:;
#CDIMAGE:;
#DISCIMAGE:;
#LYRICSPATH:;
#CDTITLE:;
#MUSIC:FNF 17 Badniks [17 Bucks Eggman Song (ft. Metal Sonic)] (FLP).mp3;
#OFFSET:-0.475805;
#SAMPLESTART:41.843151;
#SAMPLELENGTH:12.000000;
#SELECTABLE:YES;
#BPMS:0.000=145.042;
#STOPS:;
#DELAYS:;
#WARPS:;
#TIMESIGNATURES:0.000=4=4;
#TICKCOUNTS:0.000=4;
#COMBOS:0.000=1;
#SPEEDS:0.000=0.800=0.000=0;
#SCROLLS:0.000=1.000;
#FAKES:;
#LABELS:0.000=Song Start;
#BGCHANGES:;
#KEYSOUNDS:;
#ATTACKS:
;

//---------------dance-single - Basic----------------
#NOTEDATA:;
#CHARTNAME:Basic;
#STEPSTYPE:dance-single;
#DESCRIPTION:Basic;
#CHARTSTYLE:;
#DIFFICULTY:Easy;
#METER:4;
#RADARVALUES:0.282249,0.265109,0.000000,0.007185,0.000000,275.000000,275.000000,0.000000,1.000000,0.000000,0.000000,0.000000,0.000000,0.000000,0.282249,0.265109,0.000000,0.007185,0.000000,275.000000,275.000000,0.000000,1.000000,0.000000,0.000000,0.000000,0.000000,0.000000;
#CREDIT:Basic;
#NOTES:
0000
0001
0000
0010
,
0000
1000
0000
0100
,
0000
0010
0000
1000
,
0000
0001
0000
1000
,
0000
0001
0000
0010
,
0000
1000
0000
0100
,
0000
0010
0000
1000
,
0000
0001
0000
1000
,
0000
0001
0000
0010
,
0000
1000
0000
0100
,
0000
0001
0000
0100
,
0000
1000
0000
0100
,
0000
0001
0000
0010
,
0000
1000
0000
0100
,
0000
0010
0000
1000
,
0000
0001
0000
0000
,
0001
0100
0010
0001
,
1000
0001
0100
0010
,
0001
0100
0010
0001
,
1000
0001
0100
0010
,
1000
0001
0010
0100
,
0001
1000
0100
0010
,
0001
1000
0010
0100
,
0001
1000
0100
0010
,
0001
0100
0010
0001
,
1000
0001
0100
0010
,
0001
1000
0010
0100
,
1000
0001
0100
0010
,
1000
0001
0100
0010
,
0001
1000
0010
0100
,
1000
0001
0100
0010
,
0001
1000
0100
0010
,
0010
0001
0100
0000
,
0100
0010
0100
0000
,
1000
0001
0100
0000
,
1000
0100
0010
0000
,
1000
0001
0100
0000
,
1000
0100
0010
0000
,
1000
0001
0100
0000
,
1000
0100
0010
0000
,
1000
1000
0010
0010
,
1000
1000
0100
0100
,
0001
0001
0010
0010
,
1000
1000
0100
0100
,
0010
0010
1000
1000
,
0010
0010
0100
0100
,
0001
0001
0010
0010
,
0001
0001
1000
1000
,
0001
0001
0010
0010
,
1000
1000
0100
0100
,
0001
0001
0010
0010
,
1000
1000
0100
0100
,
0001
0001
0010
0010
,
1000
1000
0100
0100
,
0010
0010
1000
1000
,
0001
0001
0010
0000
,
0000
0001
0100
0010
,
0001
1000
0100
0010
,
1000
0001
0100
0010
,
0001
1000
0010
0100
,
0001
1000
0010
0100
,
0001
1000
0100
0010
,
1000
0001
0100
0010
,
1000
0010
1000
0010
,
1000
0001
0100
0010
,
1000
0001
0100
0010
,
0001
1000
0010
0100
,
1000
0001
0010
0100
,
1000
0001
0100
0010
,
0001
1000
0010
0100
,
0001
1000
0010
0100
,
0002
0000
0003
0000
,
0001
0010
0100
0010
,
0100
1000
0001
0100
,
1000
0010
0100
1000
,
0010
0001
0010
0010
,
0001
0001
0010
0010
,
1000
1000
0100
0100
,
1000
1000
0010
0010
,
1000
1000
0010
0010
,
0000
0000
0000
0000
,
0000
0000
0000
0000
,
0010
0000
0000
0000
;

//---------------dance-single - Basic----------------
#NOTEDATA:;
#CHARTNAME:;
#STEPSTYPE:dance-single;
#DESCRIPTION:Basic;
#CHARTSTYLE:;
#DIFFICULTY:Beginner;
#METER:4;
#RADARVALUES:0.085188,0.117826,0.000000,0.000000,0.000000,83.000000,83.000000,0.000000,0.000000,0.000000,0.000000,0.000000,0.000000,0.000000,0.085188,0.117826,0.000000,0.000000,0.000000,83.000000,83.000000,0.000000,0.000000,0.000000,0.000000,0.000000,0.000000,0.000000;
#CREDIT:;
#NOTES:
// measure 0
0000
0001
0000
0000
,  // measure 1
0000
1000
0000
0000
,  // measure 2
0000
0010
0000
0000
,  // measure 3
0000
0001
0000
0000
,  // measure 4
0000
0100
0000
0000
,  // measure 5
0000
1000
0000
0000
,  // measure 6
0000
0010
0000
0000
,  // measure 7
0000
0001
0000
0000
,  // measure 8
0000
0100
0000
0000
,  // measure 9
0000
1000
0000
0000
,  // measure 10
0000
0001
0000
0000
,  // measure 11
0000
1000
0000
0000
,  // measure 12
0000
0001
0000
0000
,  // measure 13
0000
1000
0000
0000
,  // measure 14
0000
0010
0000
0000
,  // measure 15
0000
0100
0000
0000
,  // measure 16
0001
0000
0000
0100
,  // measure 17
0000
0000
0001
0000
,  // measure 18
0000
0100
0000
0001
,  // measure 19
0000
0000
0000
0010
,  // measure 20
0000
0000
0000
0100
,  // measure 21
0000
0000
0000
0010
,  // measure 22
0000
0000
0000
0100
,  // measure 23
0000
0000
0000
0010
,  // measure 24
0000
0000
0000
0001
,  // measure 25
0000
0000
0000
0010
,  // measure 26
0000
0000
0000
0100
,  // measure 27
0000
0000
0000
0010
,  // measure 28
0000
0000
0000
0010
,  // measure 29
0000
0000
0000
0100
,  // measure 30
0000
0000
0000
0010
,  // measure 31
0000
0000
0000
0010
,  // measure 32
0000
0000
0000
0100
,  // measure 33
0000
0000
0000
0100
,  // measure 34
0000
0000
0000
0010
,  // measure 35
0000
0000
0000
0010
,  // measure 36
0000
0000
0000
0100
,  // measure 37
0000
0000
0000
0010
,  // measure 38
0000
0000
0000
0010
,  // measure 39
0000
0000
0000
0010
,  // measure 40
0000
0000
0000
0010
,  // measure 41
0000
0000
0000
0100
,  // measure 42
0000
0000
0000
0010
,  // measure 43
0000
0000
0000
0100
,  // measure 44
0000
0000
0000
1000
,  // measure 45
0000
0000
0000
0100
,  // measure 46
0000
0000
0000
0010
,  // measure 47
0000
0000
0000
1000
,  // measure 48
0000
0000
0000
0010
,  // measure 49
0000
0000
0000
0100
,  // measure 50
0000
0000
0000
0010
,  // measure 51
0000
0000
0000
0100
,  // measure 52
0000
0000
0000
0010
,  // measure 53
0000
0000
0000
0100
,  // measure 54
0000
0000
0000
1000
,  // measure 55
0000
0000
0010
0000
,  // measure 56
0000
0000
0000
0100
,  // measure 57
0000
0000
0000
0010
,  // measure 58
0000
0000
0000
0100
,  // measure 59
0000
0000
0000
0001
,  // measure 60
0000
0000
0000
0100
,  // measure 61
0000
0000
0000
0001
,  // measure 62
0000
0000
0000
0100
,  // measure 63
0000
0000
0000
0001
,  // measure 64
0000
0000
0000
0100
,  // measure 65
0000
0000
0000
0010
,  // measure 66
0000
0000
0000
1000
,  // measure 67
0000
0000
0000
0100
,  // measure 68
0000
0000
0000
0010
,  // measure 69
0000
0000
0000
0100
,  // measure 70
0000
0000
0000
0000
,  // measure 71
0100
0000
0000
0000
,  // measure 72
0001
0000
0000
0000
,  // measure 73
0100
0000
0000
0000
,  // measure 74
1000
0000
0000
0000
,  // measure 75
0010
0000
0000
0000
,  // measure 76
0001
0000
0000
0000
,  // measure 77
1000
0000
0000
0000
,  // measure 78
0001
0000
0000
0000
,  // measure 79
1000
0000
0010
0000
,  // measure 80
0000
0000
0000
0000
,  // measure 81
0000
0000
0000
0000
,  // measure 82
0010
0000
0000
0000
;
