#VERSION:0.83;
#TITLE:Exponential Entropy;
#SUBTITLE:;
#ARTIST:Final Fantasy;
#TITLETRANSLIT:;
#SUBTITLETRANSLIT:;
#ARTISTTRANSLIT:;
#GENRE:;
#ORIGIN:;
#CREDIT:Gorilla v1.1.3 (Dancing Monkeys v1.06);
#BANNER:thumb21.png;
#BACKGROUND:1203ad1c-fbb8-4805-822d-b28a568503ed_Final_Fantasy_VII_Remake_05.png;
#PREVIEWVID:;
#JACKET:;
#CDIMAGE:;
#DISCIMAGE:;
#LYRICSPATH:;
#CDTITLE:;
#MUSIC:Exponential Entropy with Official Lyrics (Cruise Chaser Theme) Final Fantasy XIV.mp3;
#OFFSET:-1.188027;
#SAMPLESTART:44.045170;
#SAMPLELENGTH:12.000000;
#SELECTABLE:YES;
#BPMS:0.000=140.000;
#STOPS:;
#DELAYS:;
#WARPS:;
#TIMESIGNATURES:0.000=4=4;
#TICKCOUNTS:0.000=4;
#COMBOS:0.000=1;
#SPEEDS:0.000=1.000=0.000=0;
#SCROLLS:0.000=1.200;
#FAKES:;
#LABELS:0.000=Song Start;
#BGCHANGES:;
#KEYSOUNDS:;
#ATTACKS:
;

//---------------dance-single - Basic----------------
#NOTEDATA:;
#CHARTNAME:Basic;
#STEPSTYPE:dance-single;
#DESCRIPTION:Basic;
#CHARTSTYLE:;
#DIFFICULTY:Easy;
#METER:3;
#RADARVALUES:0.119147,0.106322,0.000000,0.006619,0.000000,126.000000,126.000000,0.000000,1.000000,0.000000,0.000000,0.000000,0.000000,0.000000,0.119147,0.106322,0.000000,0.006619,0.000000,126.000000,126.000000,0.000000,1.000000,0.000000,0.000000,0.000000,0.000000,0.000000;
#CREDIT:Basic;
#NOTES:
// measure 0
1000
0000
0001
0000
,  // measure 1
0001
0000
1000
0000
,  // measure 2
0001
0000
1000
0000
,  // measure 3
0001
0000
1000
0000
,  // measure 4
0001
0000
1000
0000
,  // measure 5
0001
0000
1000
0000
,  // measure 6
0001
0000
1000
0000
,  // measure 7
0001
0000
0010
0000
,  // measure 8
0100
0000
0010
0000
,  // measure 9
0100
0000
0010
0000
,  // measure 10
0100
0000
0010
0000
,  // measure 11
0100
0000
0010
0000
,  // measure 12
0100
0000
0010
0000
,  // measure 13
0100
0000
0010
0000
,  // measure 14
0100
0000
0010
0000
,  // measure 15
0100
0000
0010
0000
,  // measure 16
0100
0000
0010
0000
,  // measure 17
0100
0000
0010
0000
,  // measure 18
0100
0000
0010
0000
,  // measure 19
0100
0000
0010
0000
,  // measure 20
0100
0000
0010
0000
,  // measure 21
0100
0000
0010
0000
,  // measure 22
0100
0000
0010
0000
,  // measure 23
0100
0000
0010
0000
,  // measure 24
1000
0000
0001
0000
,  // measure 25
0100
0000
1000
0000
,  // measure 26
0010
0000
1000
0000
,  // measure 27
0100
0000
0001
0000
,  // measure 28
0010
0000
1000
0000
,  // measure 29
0001
0000
1000
0000
,  // measure 30
0001
0000
1000
0000
,  // measure 31
0020
0000
0000
0000
,  // measure 32
0030
0000
0000
0000
,  // measure 33
0001
0000
0001
0000
,  // measure 34
0100
0000
1000
0000
,  // measure 35
1000
0000
0010
0000
,  // measure 36
0001
0000
0001
0000
,  // measure 37
0100
0000
1000
0000
,  // measure 38
1000
0000
0010
0000
,  // measure 39
0001
0000
0001
0000
,  // measure 40
0100
0000
1000
0000
,  // measure 41
1000
0000
0100
0000
,  // measure 42
0001
0000
0001
0000
,  // measure 43
1000
0000
0010
0000
,  // measure 44
0010
0000
1000
0000
,  // measure 45
0010
0000
0010
0000
,  // measure 46
1000
0000
0010
0000
,  // measure 47
0010
0000
1000
0000
,  // measure 48
0001
0000
0001
0000
,  // measure 49
0000
1000
0000
0010
,  // measure 50
0000
1000
0000
0100
,  // measure 51
0000
0010
0000
1000
,  // measure 52
0000
0001
0000
0010
,  // measure 53
0000
1000
0000
0100
,  // measure 54
0000
0010
0000
1000
,  // measure 55
0000
0100
0000
0010
,  // measure 56
0000
0001
0000
0100
,  // measure 57
0000
0010
0000
0100
,  // measure 58
0000
0001
0000
0010
,  // measure 59
0000
1000
0000
0100
,  // measure 60
0000
0010
0000
0100
,  // measure 61
0000
1000
0000
0010
,  // measure 62
0000
1000
0000
0001
,  // measure 63
0000
1000
0000
0010
,  // measure 64
0000
0001
0000
0000
;
