#TITLE:Nicki Minaj - Everybody (feat. Lil Uzi Vert) [Official Audio];
#SUBTITLE:;
#ARTIST:Dancing Monkeys Project;
#TITLETRANSLIT:;
#SUBTITLETRANSLIT:;
#ARTISTTRANSLIT:;
#GENRE:;
#CREDIT:Gorilla v1.1.3 (Dancing Monkeys v1.06);
#BANNER:maxresdefault.png;
#BACKGROUND:artworks-uaShyhsAwBEsNbGX-PPegQA-t500x500.png;
#LYRICSPATH:;
#CDTITLE:;
#MUSIC:Nicki Minaj - Everybody (feat. Lil Uzi Vert) [Official Audio].mp3;
#OFFSET:-0.038583;
#SAMPLESTART:43.513584;
#SAMPLELENGTH:12.000000;
#SELECTABLE:YES;
#BPMS:0.000000=138.009995
;
#STOPS:
;
#BGCHANGES:;
#KEYSOUNDS:;
#ATTACKS:;

//---------------dance-single - Basic----------------
#NOTES:
     dance-single:
     Basic:
     Easy:
     3:
     0.198942,0.254114,0.000000,0.039979,0.000000,209.000000,209.000000,0.000000,6.000000,0.000000,0.000000,0.198942,0.254114,0.000000,0.039979,0.000000,209.000000,209.000000,0.000000,6.000000,0.000000,0.000000:
// measure 0
0000
0000
0000
0000
,  // measure 1
1000
0010
0000
0000
,  // measure 2
2000
0000
0000
3000
,  // measure 3
0020
0000
0000
0030
,  // measure 4
0200
0000
0000
0300
,  // measure 5
0002
0000
0000
0003
,  // measure 6
1000
0010
0100
1000
,  // measure 7
1000
0010
0010
0010
,  // measure 8
1000
1000
0001
0001
,  // measure 9
1000
0001
0000
0000
,  // measure 10
0001
1000
0000
0000
,  // measure 11
1000
0001
0000
0000
,  // measure 12
1000
0010
0000
0000
,  // measure 13
1000
0001
0000
0000
,  // measure 14
1000
0001
0000
0000
,  // measure 15
1000
0001
0000
0000
,  // measure 16
1000
0010
1000
1000
,  // measure 17
1000
0001
0000
0000
,  // measure 18
1000
0001
0000
0000
,  // measure 19
1000
0001
0000
0000
,  // measure 20
1000
0001
0000
0000
,  // measure 21
1000
0001
0000
0000
,  // measure 22
1000
1000
0000
0000
,  // measure 23
1000
0001
0000
0000
,  // measure 24
0100
0100
0000
0000
,  // measure 25
1000
0100
0010
1000
,  // measure 26
1000
0100
0010
0001
,  // measure 27
0001
0100
0010
0010
,  // measure 28
1000
1000
1000
1000
,  // measure 29
1000
0100
0010
0010
,  // measure 30
1000
0010
0100
0100
,  // measure 31
0100
0000
0001
0000
,  // measure 32
1000
0000
0001
0010
,  // measure 33
1000
0000
0000
0000
,  // measure 34
0001
1000
0000
0000
,  // measure 35
0001
1000
0000
0000
,  // measure 36
1000
0001
0000
0000
,  // measure 37
0001
1000
0000
0000
,  // measure 38
1000
0001
0000
0000
,  // measure 39
0001
1000
0000
0000
,  // measure 40
1000
0010
0000
0000
,  // measure 41
1000
0001
0000
0000
,  // measure 42
1000
0001
0000
0000
,  // measure 43
1000
0001
0000
0000
,  // measure 44
0001
1000
0000
0000
,  // measure 45
1000
0001
0000
0000
,  // measure 46
1000
0001
0000
0000
,  // measure 47
1000
0001
0000
0000
,  // measure 48
0001
0100
0000
0000
,  // measure 49
1000
0100
0010
0010
,  // measure 50
0001
0001
0010
0010
,  // measure 51
1000
1000
0010
0010
,  // measure 52
1000
1000
1000
1000
,  // measure 53
1000
0100
0010
0010
,  // measure 54
1000
1000
0010
0010
,  // measure 55
1000
1000
0001
0001
,  // measure 56
0010
0010
1000
1000
,  // measure 57
1000
0001
0000
0000
,  // measure 58
1000
0001
0000
0000
,  // measure 59
0001
1000
0000
0000
,  // measure 60
1000
0001
0000
0000
,  // measure 61
0001
1000
0000
0000
,  // measure 62
1000
0001
0000
0000
,  // measure 63
1000
0001
0000
0000
,  // measure 64
1000
0010
1000
1000
,  // measure 65
0200
0000
0300
0000
,  // measure 66
0001
1000
0000
0000
,  // measure 67
0001
1000
0000
0000
,  // measure 68
1000
0001
0000
0000
,  // measure 69
0001
1000
0000
0000
,  // measure 70
2000
0000
0000
3000
,  // measure 71
1000
0001
0000
0000
,  // measure 72
0001
0100
0100
1000
,  // measure 73
1000
1000
0010
0010
,  // measure 74
0001
0001
0100
0100
,  // measure 75
0001
0001
0100
0100
,  // measure 76
0100
0100
1000
1000
,  // measure 77
1000
0000
0010
0000
,  // measure 78
0010
0000
0100
0000
,  // measure 79
0100
0000
0010
0000
,  // measure 80
0010
0000
0001
1000
,  // measure 81
0000
0100
0000
0010
,  // measure 82
0000
0100
0000
1000
,  // measure 83
0000
0010
0000
0000
,  // measure 84
0000
0000
0000
0001
;
