#VERSION:0.83;
#TITLE:End of The Road;
#SUBTITLE:;
#ARTIST:BOYS II MEN;
#TITLETRANSLIT:;
#SUBTITLETRANSLIT:;
#ARTISTTRANSLIT:;
#GENRE:;
#ORIGIN:;
#CREDIT:Gorilla v1.1.3 (Dancing Monkeys v1.06);
#BANNER:;
#BACKGROUND:9ef395c503bb63577c6b8b817fb37e16.png;
#PREVIEWVID:;
#JACKET:B2m-evolution.png;
#CDIMAGE:;
#DISCIMAGE:;
#LYRICSPATH:;
#CDTITLE:;
#MUSIC:onlymp3.to - Boyz II Men End Of The Road-zDKO6XYXioc-192k-1696852490.mp3;
#OFFSET:-1.378187;
#SAMPLESTART:41.509438;
#SAMPLELENGTH:12.000000;
#SELECTABLE:YES;
#BPMS:0.000=149.509;
#STOPS:;
#DELAYS:;
#WARPS:;
#TIMESIGNATURES:0.000=4=4;
#TICKCOUNTS:0.000=4;
#COMBOS:0.000=1;
#SPEEDS:0.000=0.800=0.000=0;
#SCROLLS:0.000=1.000;
#FAKES:;
#LABELS:0.000=Song Start;
#BGCHANGES:;
#KEYSOUNDS:;
#ATTACKS:
;

//---------------dance-single - Basic----------------
#NOTEDATA:;
#CHARTNAME:Basic;
#STEPSTYPE:dance-single;
#DESCRIPTION:Basic;
#CHARTSTYLE:;
#DIFFICULTY:Easy;
#METER:5;
#RADARVALUES:0.129153,0.148101,0.000000,0.076132,0.000000,95.000000,95.000000,0.000000,8.000000,0.000000,0.000000,0.000000,0.000000,0.000000,0.129153,0.148101,0.000000,0.076132,0.000000,95.000000,95.000000,0.000000,8.000000,0.000000,0.000000,0.000000,0.000000,0.000000;
#CREDIT:Basic;
#NOTES:
// measure 0
0000
0000
0000
0020
,  // measure 1
0000
0000
0000
0000
,  // measure 2
0030
0100
0000
0010
,  // measure 3
0000
1000
0000
0100
,  // measure 4
0000
0000
0010
0000
,  // measure 5
0001
0000
0000
0001
,  // measure 6
0000
0001
0000
0020
,  // measure 7
0000
0000
0000
0000
,  // measure 8
0030
0000
0010
0000
,  // measure 9
1000
0000
0010
0000
,  // measure 10
1000
0000
0100
0000
,  // measure 11
1000
0000
0001
0000
,  // measure 12
0001
0000
0010
0002
,  // measure 13
0000
0000
0000
0000
,  // measure 14
0003
0000
0010
0000
,  // measure 15
1000
0000
0100
0200
,  // measure 16
0000
0000
0000
0300
,  // measure 17
0000
0001
0000
0001
,  // measure 18
0000
0001
0000
0010
,  // measure 19
0000
0000
0010
0000
,  // measure 20
0001
0000
0000
0000
,  // measure 21
1000
0000
0100
0000
,  // measure 22
1000
0000
1000
0000
,  // measure 23
1000
0000
1000
0000
,  // measure 24
1000
0000
0000
0100
,  // measure 25
0000
0010
0000
0010
,  // measure 26
0000
0010
0000
0000
,  // measure 27
1000
0000
0010
0000
,  // measure 28
1000
0000
0100
0000
,  // measure 29
1000
0000
0001
0000
,  // measure 30
1000
0000
0010
0000
,  // measure 31
0010
0000
0100
0000
,  // measure 32
1000
0000
0001
0000
,  // measure 33
1000
0000
0100
0000
,  // measure 34
0001
0000
0100
0000
,  // measure 35
0001
0000
0100
0000
,  // measure 36
0001
0100
0000
0000
,  // measure 37
1000
0000
1000
0000
,  // measure 38
0001
0000
0000
0100
,  // measure 39
0000
0100
0000
1000
,  // measure 40
0000
0001
0000
1000
,  // measure 41
0000
1000
0000
0000
,  // measure 42
0000
0100
0000
0000
,  // measure 43
1000
0000
0100
0000
,  // measure 44
1000
0000
0001
0000
,  // measure 45
0000
0100
0000
0000
,  // measure 46
1000
0000
0010
0000
,  // measure 47
1000
0000
0000
0100
,  // measure 48
0000
0000
0000
0010
,  // measure 49
0000
0000
0100
0000
,  // measure 50
0000
0000
0001
0000
,  // measure 51
1000
0000
0000
0200
,  // measure 52
0000
0000
0000
0000
,  // measure 53
0300
0000
0000
0010
,  // measure 54
0000
0001
0000
0010
,  // measure 55
0000
0000
1000
0000
,  // measure 56
0000
0002
0000
0000
,  // measure 57
0000
0003
0000
0002
,  // measure 58
0000
0000
0000
0003
,  // measure 59
0000
0002
0000
0000
,  // measure 60
0000
0003
0100
0000
,  // measure 61
0000
1000
0000
0000
,  // measure 62
0000
0001
0000
0000
;
