#VERSION:0.83;
#TITLE:Empty Threat (Long Ver.);
#SUBTITLE:;
#ARTIST:Dancing Monkeys Project;
#TITLETRANSLIT:;
#SUBTITLETRANSLIT:;
#ARTISTTRANSLIT:;
#GENRE:;
#ORIGIN:;
#CREDIT:Gorilla v1.1.3 (Dancing Monkeys v1.06);
#BANNER:maxresdefault.png;
#BACKGROUND:ab67616d00001e022debc10e0e1f61c946e51189.png;
#PREVIEWVID:;
#JACKET:;
#CDIMAGE:;
#DISCIMAGE:;
#LYRICSPATH:;
#CDTITLE:;
#MUSIC:onlymp3.to - CHVRCHES Empty Threat-vDuu2bGiUSo-192k-1696865123.mp3;
#OFFSET:-0.253958;
#SAMPLESTART:45.537292;
#SAMPLELENGTH:12.000000;
#SELECTABLE:YES;
#BPMS:0.000=132.499;
#STOPS:;
#DELAYS:;
#WARPS:;
#TIMESIGNATURES:0.000=4=4;
#TICKCOUNTS:0.000=4;
#COMBOS:0.000=1;
#SPEEDS:0.000=1.000=0.000=0;
#SCROLLS:0.000=1.000;
#FAKES:;
#LABELS:0.000=Song Start;
#BGCHANGES:;
#KEYSOUNDS:;
#ATTACKS:
;

//---------------dance-single - Basic----------------
#NOTEDATA:;
#CHARTNAME:Basic;
#STEPSTYPE:dance-single;
#DESCRIPTION:Basic;
#CHARTSTYLE:;
#DIFFICULTY:Easy;
#METER:5;
#RADARVALUES:0.249566,0.317890,0.045004,0.020456,0.000000,427.000000,416.000000,11.000000,5.000000,0.000000,0.000000,0.000000,0.000000,0.000000,0.249566,0.317890,0.045004,0.020456,0.000000,427.000000,416.000000,11.000000,5.000000,0.000000,0.000000,0.000000,0.000000,0.000000;
#CREDIT:Basic;
#NOTES:
0001
1000
0001
0100
,
1000
0001
0010
0100
,
0001
1000
0001
0100
,
1000
0001
0000
0100
,
0001
1000
0000
0100
,
1000
0001
0000
0010
,
0001
0010
0000
0001
,
1000
0001
0000
0100
,
0001
1000
0001
0100
,
1000
0001
0000
0100
,
0001
1000
0001
0100
,
1000
0001
0000
0100
,
0000
0001
0100
0010
,
0000
0001
0010
0100
,
1000
0001
0000
0100
,
0001
1000
0000
0010
,
1000
1001
0010
1001
,
1000
0100
0010
0001
,
1000
0010
0100
0010
,
1000
0100
0010
0001
,
1000
0001
0001
0010
,
0001
0010
1000
0010
,
0001
0100
0010
0100
,
1000
0010
1000
0100
,
1000
0010
0001
0100
,
1000
0100
0010
0001
,
0001
0100
0010
0100
,
1000
0100
0010
0001
,
1000
1000
0001
0010
,
0001
0010
1000
0010
,
0001
0100
0010
0100
,
1000
0010
0100
0010
,
1000
0010
0100
0010
,
1000
0100
0010
0000
,
1001
0100
0010
0000
,
1000
0010
0100
0000
,
1001
1000
0001
0100
,
1000
0001
0010
0100
,
0001
1000
0001
0100
,
1000
0001
0010
0100
,
0001
1000
0100
0010
,
0001
1000
0100
0010
,
1000
0001
0100
0010
,
1000
0001
0010
0100
,
0001
0100
1000
0100
,
1000
0001
0001
0100
,
0001
1000
0001
0100
,
1000
0001
0010
0100
,
1000
0001
0100
0010
,
1000
0001
0010
0100
,
0001
1000
0000
0010
,
0001
1000
0000
0010
,
1001
0001
1001
0010
,
1000
0100
0010
0001
,
1001
0100
0010
0100
,
0001
0100
0010
0001
,
1000
0100
0001
0100
,
0001
0010
1000
0010
,
0001
0100
0010
0100
,
1000
0010
1000
0100
,
1000
0010
0001
0100
,
1000
0100
0010
0001
,
0001
0100
0010
0100
,
1000
0100
0010
0001
,
1000
1000
0001
0010
,
0001
0010
0001
0010
,
1000
0100
0010
0100
,
0001
1000
0001
0200
,
0000
0000
0000
0000
,
0000
0000
0000
0000
,
0000
0300
0001
0002
,
0000
0000
0000
0000
,
0000
0000
0000
0000
,
0000
0000
0000
0000
,
0000
0003
1000
0000
,
0002
0000
0000
0000
,
0000
2003
0000
0000
,
0000
0000
0000
0000
,
0000
0000
3000
0000
,
0002
0000
0000
0000
,
0000
0000
0000
0000
,
0000
0000
0000
0000
,
0000
0000
0003
0000
,
0000
0000
0000
0010
,
0000
0000
0001
0000
,
1000
0001
0000
0100
,
0000
0000
1000
0010
,
0000
0000
1000
0010
,
1000
0001
0000
0100
,
0001
0000
1000
0100
,
1000
0000
0001
0010
,
1000
0001
0000
0100
,
0001
0000
1000
0100
,
0001
0000
1000
0010
,
1000
0000
0001
0100
,
1000
0001
0000
0100
,
0001
0000
1000
0100
,
1000
0000
0001
0100
,
1000
0000
0001
0010
,
1000
0010
1000
0100
,
0001
1001
0100
0010
,
1000
0100
0010
1000
,
0001
0100
1000
0001
,
1000
0100
0010
0001
,
1000
0100
0001
0100
,
0001
0100
0010
0100
,
0001
0100
0010
0100
,
0001
0010
1000
0100
,
0001
0100
1000
0100
,
0010
0100
0010
0001
,
1000
0010
0100
0001
,
1000
0100
0010
0001
,
1000
0010
0100
1000
,
0001
0100
1001
0010
,
1001
0100
0010
0100
,
0001
0010
0100
0010
,
0001
0100
1000
0001
,
1000
0100
0010
0001
,
1000
0100
0010
0001
,
1000
0010
0100
0001
,
0001
0100
1000
0001
,
1000
0100
0010
0100
,
1000
0010
0100
0001
,
1001
0100
0010
1000
,
0001
1000
0000
0001
,
0000
1000
0000
0001
,
0000
1000
0000
0001
,
0000
1000
0000
0001
,
0000
0100
0100
0000
,
0000
0000
1000
0000
;

//---------------dance-single - Basic----------------
#NOTEDATA:;
#CHARTNAME:;
#STEPSTYPE:dance-single;
#DESCRIPTION:Basic;
#CHARTSTYLE:;
#DIFFICULTY:Beginner;
#METER:5;
#RADARVALUES:0.134427,0.131431,0.000000,0.020456,0.000000,230.000000,230.000000,0.000000,5.000000,0.000000,0.000000,0.000000,0.000000,0.000000,0.134427,0.131431,0.000000,0.020456,0.000000,230.000000,230.000000,0.000000,5.000000,0.000000,0.000000,0.000000,0.000000,0.000000;
#CREDIT:;
#NOTES:
// measure 0
0001
0000
0001
0000
,  // measure 1
1000
0000
0010
0000
,  // measure 2
0001
0000
0001
0000
,  // measure 3
1000
0000
0100
0000
,  // measure 4
0001
0000
0010
0000
,  // measure 5
1000
0000
0010
0000
,  // measure 6
0001
0000
0010
0000
,  // measure 7
1000
0000
0010
0000
,  // measure 8
0001
0000
0001
0000
,  // measure 9
1000
0000
0010
0000
,  // measure 10
1000
0000
0001
0000
,  // measure 11
1000
0000
0010
0000
,  // measure 12
1000
0000
0100
0000
,  // measure 13
0010
0000
0010
0000
,  // measure 14
1000
0000
0010
0000
,  // measure 15
0001
0000
0100
0000
,  // measure 16
1000
0000
0010
0000
,  // measure 17
1000
0000
0010
0000
,  // measure 18
1000
0000
0100
0000
,  // measure 19
1000
0000
0010
0000
,  // measure 20
1000
0000
0001
0000
,  // measure 21
0001
0000
1000
0000
,  // measure 22
0001
0000
0010
0000
,  // measure 23
1000
0000
1000
0000
,  // measure 24
1000
0000
0001
0000
,  // measure 25
1000
0000
0010
0000
,  // measure 26
0001
0000
0010
0000
,  // measure 27
1000
0000
0010
0000
,  // measure 28
1000
0000
0001
0000
,  // measure 29
0001
0000
1000
0000
,  // measure 30
0001
0000
0010
0000
,  // measure 31
1000
0000
0100
0000
,  // measure 32
1000
0000
0100
0000
,  // measure 33
1000
0000
0010
0000
,  // measure 34
0001
0000
0010
0000
,  // measure 35
1000
0000
0100
0000
,  // measure 36
0001
0000
0001
0000
,  // measure 37
1000
0000
0010
0000
,  // measure 38
0001
0000
0001
0000
,  // measure 39
1000
0000
0010
0000
,  // measure 40
0001
0000
0100
0000
,  // measure 41
0001
0000
0100
0000
,  // measure 42
1000
0000
0100
0000
,  // measure 43
1000
0000
0010
0000
,  // measure 44
0001
0000
1000
0000
,  // measure 45
1000
0000
0001
0000
,  // measure 46
0001
0000
0001
0000
,  // measure 47
1000
0000
0010
0000
,  // measure 48
1000
0000
0100
0000
,  // measure 49
1000
0000
0010
0000
,  // measure 50
0001
0000
0100
0000
,  // measure 51
0001
0000
0010
0000
,  // measure 52
1000
0000
0001
0000
,  // measure 53
1000
0000
0010
0000
,  // measure 54
0001
0000
0010
0000
,  // measure 55
0001
0000
0010
0000
,  // measure 56
1000
0000
0010
0000
,  // measure 57
0001
0000
1000
0000
,  // measure 58
0001
0000
0010
0000
,  // measure 59
1000
0000
0010
0000
,  // measure 60
1000
0000
0001
0000
,  // measure 61
1000
0000
0010
0000
,  // measure 62
0001
0000
0010
0000
,  // measure 63
1000
0000
0010
0000
,  // measure 64
1000
0000
0010
0000
,  // measure 65
0100
0000
0001
0000
,  // measure 66
1000
0000
0010
0000
,  // measure 67
0001
0000
0200
0000
,  // measure 68
0000
0000
0000
0000
,  // measure 69
0000
0000
0000
0000
,  // measure 70
0000
0000
0300
0002
,  // measure 71
0000
0000
0000
0000
,  // measure 72
0000
0000
0000
0000
,  // measure 73
0000
0000
0000
0000
,  // measure 74
0000
0000
0003
0000
,  // measure 75
0002
0000
0000
0000
,  // measure 76
0003
2000
0000
0000
,  // measure 77
0000
0000
0000
0000
,  // measure 78
0000
0000
3000
0000
,  // measure 79
0002
0000
0000
0000
,  // measure 80
0000
0000
0000
0000
,  // measure 81
0000
0000
0000
0000
,  // measure 82
0000
0000
0003
0000
,  // measure 83
0000
0000
0000
0010
,  // measure 84
0000
0000
0001
0000
,  // measure 85
1000
0000
0010
0000
,  // measure 86
0100
0000
1000
0000
,  // measure 87
0010
0000
1000
0000
,  // measure 88
1000
0000
0010
0000
,  // measure 89
0001
0000
0100
0000
,  // measure 90
1000
0000
0001
0000
,  // measure 91
1000
0000
0010
0000
,  // measure 92
0001
0000
1000
0000
,  // measure 93
0001
0000
0100
0000
,  // measure 94
1000
0000
0001
0000
,  // measure 95
1000
0000
0010
0000
,  // measure 96
0001
0000
0100
0000
,  // measure 97
1000
0000
0001
0000
,  // measure 98
1000
0000
0001
0000
,  // measure 99
0100
0000
1000
0000
,  // measure 100
0010
0000
0100
0000
,  // measure 101
1000
0000
0010
0000
,  // measure 102
0001
0000
0100
0000
,  // measure 103
1000
0000
0010
0000
,  // measure 104
1000
0000
0010
0000
,  // measure 105
0100
0000
0010
0000
,  // measure 106
0001
0000
0010
0000
,  // measure 107
0001
0000
1000
0000
,  // measure 108
0010
0000
1000
0000
,  // measure 109
0010
0000
0100
0000
,  // measure 110
1000
0000
0100
0000
,  // measure 111
1000
0000
0010
0000
,  // measure 112
1000
0000
0100
0000
,  // measure 113
0001
0000
0100
0000
,  // measure 114
0001
0000
0010
0000
,  // measure 115
0001
0000
0100
0000
,  // measure 116
0001
0000
0100
0000
,  // measure 117
1000
0000
0010
0000
,  // measure 118
1000
0000
0010
0000
,  // measure 119
1000
0000
0100
0000
,  // measure 120
0001
0000
0010
0000
,  // measure 121
1000
0000
0010
0000
,  // measure 122
1000
0000
0100
0000
,  // measure 123
0001
0000
0010
0000
,  // measure 124
0001
0000
0010
0000
,  // measure 125
0100
0000
0010
0000
,  // measure 126
0100
0000
0010
0000
,  // measure 127
0100
0000
0010
0000
,  // measure 128
0100
0000
0010
0000
;
