#TITLE:Ember;
#SUBTITLE:;
#ARTIST:Dancing Monkeys Project;
#TITLETRANSLIT:;
#SUBTITLETRANSLIT:;
#ARTISTTRANSLIT:;
#GENRE:;
#CREDIT:Gorilla v1.1.3 (Dancing Monkeys v1.06);
#BANNER:2d65186ac9c84a86a45bdae421fe791c.png;
#BACKGROUND:dv6xmn-0aecae80-2dc0-471d-ba80-6a29157f2069.png;
#LYRICSPATH:;
#CDTITLE:;
#MUSIC:Ember.mp3;
#OFFSET:-1.115057;
#SAMPLESTART:36.396233;
#SAMPLELENGTH:12.000000;
#SELECTABLE:YES;
#BPMS:0.000000=170.061996
;
#STOPS:
;
#BGCHANGES:;
#KEYSOUNDS:;
#ATTACKS:;

//---------------dance-single - Basic----------------
#NOTES:
     dance-single:
     Basic:
     Easy:
     5:
     0.183502,0.171269,0.000000,0.028545,0.000000,135.000000,135.000000,0.000000,3.000000,0.000000,0.000000,0.183502,0.171269,0.000000,0.028545,0.000000,135.000000,135.000000,0.000000,3.000000,0.000000,0.000000:
// measure 0
0001
0000
0010
0000
,  // measure 1
1000
0000
0000
0100
,  // measure 2
0000
0001
0000
0010
,  // measure 3
0000
1000
0000
0001
,  // measure 4
0000
0000
0010
0000
,  // measure 5
1000
0000
0000
0100
,  // measure 6
0000
0001
0000
0100
,  // measure 7
0000
0010
0000
0000
,  // measure 8
0000
0000
1000
0000
,  // measure 9
1000
0000
0000
1000
,  // measure 10
0000
0100
0000
0000
,  // measure 11
0001
0000
0000
0100
,  // measure 12
0000
0001
0000
0100
,  // measure 13
0000
0010
0000
1000
,  // measure 14
0000
0010
0000
0001
,  // measure 15
0000
0000
0100
0000
,  // measure 16
0001
0000
0010
0000
,  // measure 17
2000
0000
0000
3000
,  // measure 18
0000
0100
0000
0001
,  // measure 19
0000
0010
0000
0100
,  // measure 20
0000
1000
0000
0010
,  // measure 21
0000
0001
0000
1000
,  // measure 22
0000
0100
0000
0001
,  // measure 23
0000
0100
0000
0010
,  // measure 24
0000
1000
0000
0001
,  // measure 25
0000
0100
0000
0001
,  // measure 26
0000
0010
0000
1000
,  // measure 27
0000
0100
0000
1000
,  // measure 28
0000
0010
0000
0010
,  // measure 29
0000
0001
0000
0010
,  // measure 30
0000
1000
0000
0010
,  // measure 31
0000
1000
0000
0010
,  // measure 32
0000
0010
0000
0100
,  // measure 33
0000
0001
0000
0100
,  // measure 34
0000
1000
0000
0001
,  // measure 35
0000
1000
0000
0010
,  // measure 36
0000
0010
0000
0100
,  // measure 37
0000
0010
0000
0001
,  // measure 38
0000
0100
0000
1000
,  // measure 39
0000
0010
0000
0100
,  // measure 40
0000
0010
0000
0001
,  // measure 41
0000
1000
0000
0001
,  // measure 42
0000
0100
0000
0010
,  // measure 43
0000
0010
0000
0100
,  // measure 44
0000
0010
0000
0100
,  // measure 45
0000
1000
0000
0100
,  // measure 46
0000
0010
0000
0001
,  // measure 47
0000
0010
0000
0100
,  // measure 48
0000
0010
0000
0100
,  // measure 49
0000
1000
0000
0001
,  // measure 50
0000
1000
0000
0010
,  // measure 51
0000
1000
0000
0010
,  // measure 52
0000
1000
0000
0100
,  // measure 53
0000
0010
0000
0100
,  // measure 54
0000
0010
0000
0010
,  // measure 55
0000
0001
0000
0100
,  // measure 56
0000
1000
0000
0100
,  // measure 57
0000
0001
0000
0010
,  // measure 58
0000
1000
0000
0001
,  // measure 59
0000
0010
0000
0000
,  // measure 60
0001
0000
1000
0000
,  // measure 61
0010
0000
0001
0000
,  // measure 62
0100
0000
0001
0000
,  // measure 63
2000
0000
0000
3000
,  // measure 64
0100
0000
0010
0000
,  // measure 65
1000
0000
0010
0000
,  // measure 66
1000
0000
0010
0000
,  // measure 67
0001
0000
0100
0000
,  // measure 68
1000
0000
0010
0000
,  // measure 69
1000
0000
0010
0000
,  // measure 70
0200
0000
0000
0000
,  // measure 71
0000
0300
0001
0000
,  // measure 72
0100
0000
0000
0000
;
