#TITLE:E.G.G.M.A.N;
#SUBTITLE:;
#ARTIST:Dancing Monkeys Project;
#TITLETRANSLIT:;
#SUBTITLETRANSLIT:;
#ARTISTTRANSLIT:;
#GENRE:;
#CREDIT:Gorilla v1.1.3 (Dancing Monkeys v1.06);
#BANNER:why-is-doctor-robotnik-called-doctor-eggman-1.png;
#BACKGROUND:udzgc11ug5161.png;
#LYRICSPATH:;
#CDTITLE:;
#MUSIC:onlymp3.to - E.G.G.M.A.N. by Paul Shortino Theme of Dr. Eggman -CvERHiTfx9w-192k-1696895752.mp3;
#OFFSET:-1.855792;
#SAMPLESTART:46.964127;
#SAMPLELENGTH:12.000000;
#SELECTABLE:YES;
#BPMS:0.000000=133.013000
;
#STOPS:
;
#BGCHANGES:;
#KEYSOUNDS:;
#ATTACKS:;

//---------------dance-single - Basic----------------
#NOTES:
     dance-single:
     Basic:
     Easy:
     5:
     0.305889,0.241958,0.000000,0.000000,0.000000,225.000000,225.000000,0.000000,0.000000,0.000000,0.000000,0.305889,0.241958,0.000000,0.000000,0.000000,225.000000,225.000000,0.000000,0.000000,0.000000,0.000000:
// measure 0
0000
0100
0001
1000
,  // measure 1
0010
1000
0001
0010
,  // measure 2
0100
1000
0001
0010
,  // measure 3
1000
0001
0100
0010
,  // measure 4
0100
0001
0001
0010
,  // measure 5
0001
1000
0010
1000
,  // measure 6
0010
1000
0001
0010
,  // measure 7
1000
0001
0100
0010
,  // measure 8
1000
0001
0100
0010
,  // measure 9
0001
1000
0001
0010
,  // measure 10
1000
0100
0010
0000
,  // measure 11
0001
0010
0100
0001
,  // measure 12
1000
0100
0010
1000
,  // measure 13
1000
0100
0010
0001
,  // measure 14
1000
0100
0010
0001
,  // measure 15
1000
0100
0010
1000
,  // measure 16
0010
0100
0010
0001
,  // measure 17
0100
0100
0001
0100
,  // measure 18
0001
0100
0010
0001
,  // measure 19
1000
0010
0100
0010
,  // measure 20
1000
0001
0100
0010
,  // measure 21
1000
0001
0100
0010
,  // measure 22
0001
0100
0010
0001
,  // measure 23
0010
1000
0001
0100
,  // measure 24
1000
0100
0010
0100
,  // measure 25
0010
0001
1000
0100
,  // measure 26
1000
0001
0100
0010
,  // measure 27
1000
0100
0010
0001
,  // measure 28
1000
1000
0001
0100
,  // measure 29
0001
0100
0010
1000
,  // measure 30
0001
0100
0010
1000
,  // measure 31
0001
0100
0010
1000
,  // measure 32
0001
0100
0010
0001
,  // measure 33
0001
0001
0001
1000
,  // measure 34
1000
0001
0100
0010
,  // measure 35
1000
0001
0010
0100
,  // measure 36
1000
0001
0100
0010
,  // measure 37
0001
0001
1000
0010
,  // measure 38
1000
0001
1000
0010
,  // measure 39
1000
0001
0100
0010
,  // measure 40
0001
1000
0100
0010
,  // measure 41
0001
1000
0100
0010
,  // measure 42
1000
0001
0100
0010
,  // measure 43
1000
0001
0010
0100
,  // measure 44
1000
0001
0010
0100
,  // measure 45
1000
0100
0010
0001
,  // measure 46
0100
0001
0100
0010
,  // measure 47
0001
1000
0100
0010
,  // measure 48
0001
1000
0010
0100
,  // measure 49
1000
0100
0010
0001
,  // measure 50
1000
0010
0100
0001
,  // measure 51
0010
0100
0010
0001
,  // measure 52
1000
0010
0100
0001
,  // measure 53
0100
0001
0010
1000
,  // measure 54
0010
1000
0001
0100
,  // measure 55
1000
0010
1000
0001
,  // measure 56
0100
0010
1000
0000
;

//---------------dance-single - Basic----------------
#NOTES:
     dance-single:
     :
     Beginner:
     5:
     0.153624,0.133232,0.000000,0.000000,0.000000,113.000000,113.000000,0.000000,0.000000,0.000000,0.000000,0.153624,0.133232,0.000000,0.000000,0.000000,113.000000,113.000000,0.000000,0.000000,0.000000,0.000000:
0000
0100
0000
1000
,
0000
1000
0000
0010
,
0000
1000
0000
0010
,
0000
0001
0000
0010
,
0000
1000
0000
0010
,
0000
1000
0000
0100
,
0000
0001
0000
0010
,
0000
0001
0000
0010
,
0000
0001
0000
0010
,
0000
1000
0000
0010
,
0000
0100
0000
0010
,
0000
0010
0000
0001
,
0000
0100
0000
1000
,
0000
0100
0000
0001
,
0000
0100
0000
0001
,
0000
0100
0000
1000
,
0000
0100
0000
0001
,
0000
1000
0000
0010
,
0000
0100
0000
0001
,
0000
0100
0000
0010
,
0000
0001
0000
0010
,
0000
0100
0000
0010
,
0000
0100
0000
0001
,
0000
1000
0000
0010
,
0000
1000
0000
0100
,
0000
0001
0000
0100
,
0000
0001
0000
0010
,
0000
0100
0000
0001
,
0000
1000
0000
0010
,
0000
0100
0000
1000
,
0000
0100
0000
1000
,
0000
0100
0000
1000
,
0000
0100
0000
1000
,
0000
0010
0000
1000
,
0000
0001
0000
0010
,
0000
0001
0000
0100
,
0000
0001
0000
0010
,
0000
0001
0000
0010
,
0000
0001
0000
0010
,
0000
0001
0000
0010
,
0000
1000
0000
0010
,
0000
0001
0000
0010
,
0000
1000
0000
0010
,
0000
0001
0000
0100
,
0000
1000
0000
0100
,
0000
0100
0000
1000
,
0000
0001
0000
0010
,
0000
1000
0000
0010
,
0000
1000
0000
0100
,
0000
0100
0000
0001
,
0000
0010
0000
1000
,
0010
0000
0010
0000
,
1000
0000
0010
0000
,
0100
0000
0001
0000
,
0010
0000
0001
0000
,
1000
0000
1000
0000
,
0010
0000
0000
0000
;
