#VERSION:0.83;
#TITLE:Dreams Of An Absolution - Starry Night Remix (Short ver.);
#SUBTITLE:;
#ARTIST:Dancing Monkeys Project;
#TITLETRANSLIT:;
#SUBTITLETRANSLIT:;
#ARTISTTRANSLIT:;
#GENRE:;
#ORIGIN:;
#CREDIT:Gorilla v1.1.3 (Dancing Monkeys v1.06);
#BANNER:;
#BACKGROUND:;
#PREVIEWVID:;
#JACKET:;
#CDIMAGE:;
#DISCIMAGE:;
#LYRICSPATH:;
#CDTITLE:;
#MUSIC:Dreams Of An Absolution - Starry Night Remix (Short ver.).mp3;
#OFFSET:-0.099569;
#SAMPLESTART:47.053856;
#SAMPLELENGTH:12.000000;
#SELECTABLE:YES;
#BPMS:0.000=138.007;
#STOPS:;
#DELAYS:;
#WARPS:;
#TIMESIGNATURES:0.000=4=4;
#TICKCOUNTS:0.000=4;
#COMBOS:0.000=1;
#SPEEDS:0.000=1.300=0.000=0;
#SCROLLS:0.000=1.000;
#FAKES:;
#LABELS:0.000=Song Start;
#BGCHANGES:;
#KEYSOUNDS:;
#ATTACKS:
;

//---------------dance-single - Basic----------------
#NOTEDATA:;
#CHARTNAME:Basic;
#STEPSTYPE:dance-single;
#DESCRIPTION:Basic;
#CHARTSTYLE:;
#DIFFICULTY:Easy;
#METER:4;
#RADARVALUES:0.270603,0.253249,0.000000,0.049414,0.000000,345.000000,345.000000,0.000000,9.000000,0.000000,0.000000,0.000000,0.000000,0.000000,0.270603,0.253249,0.000000,0.049414,0.000000,345.000000,345.000000,0.000000,9.000000,0.000000,0.000000,0.000000,0.000000,0.000000;
#CREDIT:Basic;
#NOTES:
// measure 0
1000
0000
0000
0000
,  // measure 1
0001
0000
0000
0000
,  // measure 2
0100
0000
0000
0000
,  // measure 3
1000
0000
0000
0000
,  // measure 4
0010
0000
0000
0000
,  // measure 5
0100
0000
0000
0000
,  // measure 6
1000
0000
0000
0000
,  // measure 7
0010
0000
0000
0000
,  // measure 8
0002
0000
0000
0003
,  // measure 9
2000
0000
0000
3000
,  // measure 10
0020
0000
0000
0030
,  // measure 11
2000
0000
0000
3000
,  // measure 12
0020
0000
0000
0030
,  // measure 13
0002
0000
0000
0003
,  // measure 14
0200
0000
0000
0000
,  // measure 15
0000
0300
0000
0000
,  // measure 16
0000
0000
0000
0000
,  // measure 17
1000
0001
0100
0010
,  // measure 18
1000
0100
0010
0001
,  // measure 19
0001
0100
0010
1000
,  // measure 20
1000
0100
0010
0001
,  // measure 21
1000
0001
0100
0010
,  // measure 22
1000
0100
0010
0001
,  // measure 23
0001
1000
0001
0100
,  // measure 24
1000
0100
0010
0001
,  // measure 25
1000
0001
0100
0010
,  // measure 26
1000
0100
0010
0001
,  // measure 27
1000
0001
0100
0010
,  // measure 28
0001
1000
0001
1000
,  // measure 29
1000
0001
0100
0010
,  // measure 30
1000
0001
0100
0010
,  // measure 31
1000
0001
0100
0010
,  // measure 32
1000
0001
0010
1000
,  // measure 33
1000
0001
0100
0010
,  // measure 34
1000
0100
0010
0001
,  // measure 35
1000
0001
0100
0010
,  // measure 36
0010
1000
0001
0100
,  // measure 37
1000
0001
0100
0010
,  // measure 38
1000
0100
0010
0001
,  // measure 39
1000
0001
0100
0010
,  // measure 40
1000
0100
0010
0001
,  // measure 41
1000
0001
0100
0010
,  // measure 42
1000
0100
0010
0001
,  // measure 43
1000
0001
0100
0010
,  // measure 44
1000
0100
0010
0001
,  // measure 45
1000
0001
0100
0010
,  // measure 46
1000
0100
0010
0001
,  // measure 47
0010
1000
0001
0100
,  // measure 48
1000
0001
0100
1000
,  // measure 49
0001
0100
0001
0010
,  // measure 50
1000
0001
0100
0010
,  // measure 51
1000
0100
0001
0001
,  // measure 52
2000
0000
0000
3000
,  // measure 53
0001
0100
0010
1000
,  // measure 54
1000
0001
0100
0010
,  // measure 55
0001
1000
0100
0010
,  // measure 56
1000
0001
0010
0100
,  // measure 57
0001
0100
0010
1000
,  // measure 58
1000
0100
0010
0001
,  // measure 59
0001
0100
0010
1000
,  // measure 60
1000
0001
0100
0010
,  // measure 61
0001
0100
0010
1000
,  // measure 62
1000
0001
0100
0010
,  // measure 63
0001
1000
0100
0010
,  // measure 64
1000
0010
1000
0010
,  // measure 65
0001
0100
0001
0010
,  // measure 66
1000
0100
0010
0001
,  // measure 67
0001
0100
0010
1000
,  // measure 68
1000
0001
0010
0001
,  // measure 69
0000
0000
0000
0000
,  // measure 70
1000
0100
0010
0001
,  // measure 71
0001
0100
0010
1000
,  // measure 72
1000
0001
0100
0010
,  // measure 73
1000
0001
0010
0100
,  // measure 74
1000
0100
0010
0001
,  // measure 75
0001
0100
0010
1000
,  // measure 76
1000
0001
0010
0001
,  // measure 77
1000
0001
0100
0010
,  // measure 78
1000
0100
0010
0001
,  // measure 79
1000
0001
0100
0010
,  // measure 80
0001
1000
0100
0010
,  // measure 81
1000
0001
0100
0010
,  // measure 82
0001
1000
0100
0010
,  // measure 83
0001
1000
0100
0010
,  // measure 84
1000
0001
0100
0010
,  // measure 85
1000
0001
0010
0100
,  // measure 86
0001
1000
0100
0010
,  // measure 87
0001
1000
0100
0010
,  // measure 88
1000
0100
0010
0001
,  // measure 89
1000
0010
0100
0001
,  // measure 90
1000
0010
0100
0001
,  // measure 91
1000
0010
0100
0001
,  // measure 92
0100
0001
1000
0010
,  // measure 93
0100
0001
0010
1000
,  // measure 94
0100
0010
1000
0001
,  // measure 95
0010
0100
0001
0010
,  // measure 96
1000
0010
0100
0001
,  // measure 97
1000
0010
1000
0001
,  // measure 98
0010
0100
0001
0010
,  // measure 99
1000
0010
0100
0001
,  // measure 100
0010
0100
0010
0001
,  // measure 101
2000
0000
0000
0000
,  // measure 102
0000
0000
3000
0000
;

//---------------dance-single - Standard----------------
#NOTEDATA:;
#CHARTNAME:Standard;
#STEPSTYPE:dance-single;
#DESCRIPTION:Standard;
#CHARTSTYLE:;
#DIFFICULTY:Medium;
#METER:6;
#RADARVALUES:0.330214,0.376648,0.225110,0.027452,0.000000,421.000000,380.000000,41.000000,5.000000,0.000000,0.000000,0.000000,0.000000,0.000000,0.330214,0.376648,0.225110,0.027452,0.000000,421.000000,380.000000,41.000000,5.000000,0.000000,0.000000,0.000000,0.000000,0.000000;
#CREDIT:Standard;
#NOTES:
0001
0000
0000
0000
0000
0000
0000
0000
,
0001
0000
0000
0000
0000
0000
0000
0000
,
0001
0000
0000
0000
0000
0000
0000
0000
,
0001
0000
0000
0000
0000
0000
0000
0000
,
0001
0000
0000
0000
0000
0000
0000
0000
,
1000
0000
0000
0000
0000
0000
0000
0000
,
0001
0000
0000
0000
0000
0000
0000
0000
,
1000
0000
0000
0000
0000
0000
0000
0000
,
0001
0000
0200
0000
0000
0000
0000
0000
,
0000
0000
0000
0000
0000
0000
0000
0000
,
0300
0000
0002
0000
0000
0000
0000
0000
,
0000
0000
0003
0000
0000
0000
0000
0000
,
0000
0000
0000
0000
0000
0000
1000
0000
,
0000
,
1001
0000
1000
0000
0100
0010
0001
0000
,
0001
0000
1000
0100
1000
0000
0100
0000
,
1100
0000
0001
0100
0010
0000
0100
0000
,
0001
0000
1000
0100
1000
0000
0100
0000
,
1001
0000
1000
0000
0100
0010
0001
0000
,
0001
0000
1000
0100
1000
0000
0100
0000
,
1000
0000
0100
0000
0010
0100
1000
0000
,
0001
0000
1000
0100
1000
0000
0100
0000
,
1001
0000
1000
0000
0100
0010
0001
0000
,
0001
0000
1000
0100
1000
0000
0100
0000
,
1100
0000
0001
0100
0010
0000
0100
0000
,
0001
0000
1000
0100
1000
0000
0100
0000
,
1001
0000
1000
0000
0100
0010
0001
0000
,
0001
0000
1000
0100
1000
0000
0100
0000
,
1001
0000
1000
0000
0100
0010
0001
0000
,
0001
0000
0000
0000
1000
0000
0100
0000
,
1001
0000
1000
0000
0100
0010
0001
0000
,
1100
0000
0001
0000
0100
0000
0010
0000
,
1001
0000
1000
0000
0100
0010
0001
0000
,
0101
0000
1000
0000
0000
0010
0100
0000
,
1001
0000
1000
0000
0100
0010
0001
0000
,
0001
0000
1000
0100
1000
0000
0100
0000
,
1001
0000
1000
0000
0100
0010
0001
0000
,
1100
0000
0001
0100
0010
0000
0100
0000
,
1001
0000
1000
0000
0100
0010
0001
0000
,
0001
0000
1000
0100
1000
0000
0100
0000
,
1001
0000
1000
0000
0100
0010
0001
0000
,
0001
0000
1000
0100
1000
0000
0100
0000
,
1001
0000
1000
0000
0100
0010
0001
0000
,
0001
0000
1000
0100
1000
0000
0100
0000
,
1001
0000
1000
0000
0100
0010
0001
0000
,
0001
0000
1000
0100
1000
0000
0100
0000
,
1001
0000
1000
0000
0100
0010
0001
0000
,
0001
0000
1000
0100
1000
0000
0100
0000
,
1100
0000
0001
0100
0010
0000
0100
0000
,
1000
0000
0010
0000
0000
0000
0100
0000
,
1000
0000
0010
0000
1000
0000
0010
0000
,
1001
0000
1000
0000
0100
0010
0001
0000
,
1000
0000
0100
0000
1000
0100
0100
0000
,
1001
0000
1000
0000
0100
0010
0001
0000
,
1000
0000
0100
0000
0010
0100
1000
0000
,
1001
0000
1000
0000
0100
0010
0001
0000
,
1001
0000
1000
0000
0010
0100
0001
0000
,
1001
0000
1000
0000
0010
0100
0001
0000
,
1000
0000
0100
0000
0010
0100
1000
0000
,
0001
0000
1000
0100
1000
0000
0100
0000
,
1000
0000
0100
0000
0010
0100
1000
0000
,
1001
0000
1000
0000
0100
0010
0001
0000
,
1000
0000
0100
0000
0010
0100
1000
0000
,
1001
0000
1000
0000
0100
0010
0001
0000
,
1001
0000
0001
0000
0100
0010
1000
0000
,
1000
0000
0001
0100
0010
0000
0100
0000
,
1000
0000
0010
0000
1000
0000
0010
0000
,
0001
0000
1000
0100
1000
0000
0100
0000
,
1000
0000
0100
0000
0010
0100
1000
0000
,
0001
0000
0100
0000
0010
0000
0100
0000
,
1001
0000
1000
0000
0100
0010
0001
0000
,
0001
0000
1000
0100
1000
0000
0100
0000
,
1000
0000
0100
0000
0010
0100
1000
0000
,
1001
0000
1000
0000
0100
0010
0001
0000
,
1001
0000
1000
0000
0100
0010
0001
0000
,
0001
0000
1000
0100
1000
0000
0100
0000
,
1000
0000
0100
0000
0010
0100
1000
0000
,
0001
0000
0100
0000
0010
0000
0100
0000
,
1001
0000
1000
0000
0100
0010
0001
0000
,
0001
0000
1000
0100
1000
0000
0100
0000
,
1001
0000
1000
0000
0100
0010
0001
0000
,
1001
0000
0001
0000
0010
0100
1000
0000
,
1100
0000
0001
0000
0100
0000
0010
0000
,
0011
0000
1000
0000
0010
0000
0100
0000
,
0101
0000
1000
0000
0100
0000
0010
0000
,
0101
0000
1000
0000
0100
0000
0010
0000
,
0101
0000
1000
0000
0100
0000
0010
0000
,
0101
0000
1000
0000
0100
0000
0010
0000
,
0101
0000
1000
0000
0100
0000
0010
0000
,
0001
0000
1000
0100
1000
0000
0100
0000
,
2000
0000
0000
0000
0000
0000
0000
0000
,
0000
0000
0000
0000
0000
0000
0000
0000
,
0000
0000
0000
0000
0000
0000
3002
0000
,
0000
0000
0000
0000
0000
0000
0000
0000
,
0000
0000
0000
0000
0000
0000
0000
0000
,
0023
0000
0000
0000
0000
0000
0000
0000
,
0000
0000
0000
0000
0000
0000
0030
0000
,
0000
0000
0000
0000
0000
0000
1000
0000
,
0001
0000
0000
0000
0000
0000
0000
0000
,
;

//---------------dance-single - Heavy----------------
#NOTEDATA:;
#CHARTNAME:Heavy;
#STEPSTYPE:dance-single;
#DESCRIPTION:Heavy;
#CHARTSTYLE:;
#DIFFICULTY:Hard;
#METER:7;
#RADARVALUES:0.396100,0.430455,0.378844,0.027452,0.000000,505.000000,436.000000,69.000000,5.000000,0.000000,0.000000,0.000000,0.000000,0.000000,0.396100,0.430455,0.378844,0.027452,0.000000,505.000000,436.000000,69.000000,5.000000,0.000000,0.000000,0.000000,0.000000,0.000000;
#CREDIT:Heavy;
#NOTES:
1000
0000
0000
0000
0000
0000
0000
0000
,
1000
0000
0000
0000
0000
0000
0000
0000
,
1000
0000
0000
0000
0000
0000
0000
0000
,
1000
0000
0000
0000
0000
0000
0000
0000
,
1000
0000
0000
0000
0000
0000
0000
0000
,
1000
0000
0000
0000
0000
0000
0000
0000
,
1000
0000
0000
0000
0000
0000
0000
0000
,
0001
0000
0000
0000
0000
0000
0000
0000
,
1000
0000
0002
0000
0000
0000
0000
0000
,
0000
0000
0000
0000
0000
0000
0000
0000
,
0003
0000
0200
0000
0000
0000
0000
0000
,
0000
0000
0300
0000
0000
0000
0000
0000
,
0000
0000
0000
0000
0001
0000
0100
0000
,
0000
,
0110
0000
1000
0010
1000
0001
1000
0000
,
1001
0000
1000
0010
0100
0000
0010
0000
,
1001
0000
1000
0100
0010
0000
0001
0000
,
1001
0000
1000
0010
0100
0000
0010
0000
,
0110
0000
1000
0010
1000
0001
1000
0000
,
1001
0000
1000
0010
0100
0000
0010
0000
,
1100
0000
0001
0100
0001
0100
0010
0000
,
1001
0000
1000
0010
0100
0000
0010
0000
,
0110
0000
1000
0010
1000
0001
1000
0000
,
1001
0000
1000
0010
0100
0000
0010
0000
,
1001
0000
1000
0100
0010
0000
0001
0000
,
1001
0000
1000
0010
0100
0000
0010
0000
,
0110
0000
1000
0010
1000
0001
1000
0000
,
1001
0000
1000
0010
0100
0000
0010
0000
,
0110
0000
1000
0010
1000
0001
1000
0000
,
1000
0000
0000
0100
1000
0000
0001
0000
,
0110
0000
1000
0010
1000
0001
1000
0000
,
0101
0000
1000
0100
0001
0000
0100
0000
,
0110
0000
1000
0010
1000
0001
1000
0000
,
0101
0000
1000
0001
0000
0010
0100
0000
,
0110
0000
1000
0010
1000
0001
1000
0000
,
1001
0000
1000
0010
0100
0000
0010
0000
,
0110
0000
1000
0010
1000
0001
1000
0000
,
1001
0000
1000
0100
0010
0000
0001
0000
,
0110
0000
1000
0010
1000
0001
1000
0000
,
1001
0000
1000
0010
0100
0000
0010
0000
,
0110
0000
1000
0010
1000
0001
1000
0000
,
1001
0000
1000
0010
0100
0000
0010
0000
,
0110
0000
1000
0010
1000
0001
1000
0000
,
1001
0000
1000
0010
0100
0000
0010
0000
,
0110
0000
1000
0010
1000
0001
1000
0000
,
1001
0000
1000
0010
0100
0000
0010
0000
,
0110
0000
1000
0010
1000
0001
1000
0000
,
1001
0000
1000
0010
0100
0000
0010
0000
,
1001
0000
1000
0100
0010
0000
0001
0010
,
1000
0010
1000
0000
0000
0000
0000
0010
,
0001
0000
0010
0000
0001
0010
0100
0000
,
0110
0000
1000
0010
1000
0001
1000
0000
,
1010
0000
0001
0100
0001
0010
0010
0000
,
0110
0000
1000
0010
1000
0001
1000
0000
,
1100
0000
0001
0100
0001
0100
0010
0000
,
0110
0000
1000
0010
1000
0001
1000
0000
,
0110
0000
1000
0100
1000
0001
1000
0000
,
0110
0000
0001
0100
0001
1000
0001
0000
,
1100
0000
0001
0100
0001
0100
0010
0000
,
1001
0000
1000
0010
0100
0000
0010
0000
,
1100
0000
0001
0100
0001
0100
0010
0000
,
0110
0000
1000
0010
1000
0001
1000
0000
,
1100
0000
0001
0100
0001
0100
0010
0000
,
0110
0000
1000
0010
1000
0001
1000
0000
,
0110
0000
1000
0010
1000
0001
1000
0000
,
0001
0000
1000
0010
0100
0010
0100
0000
,
0001
0000
0010
0000
0001
0010
0100
0000
,
1001
0000
1000
0010
0100
0000
0010
0000
,
1100
0000
0001
0100
0001
0100
0010
0000
,
0001
0000
0100
0001
1000
0000
0010
0000
,
0110
0000
1000
0010
1000
0001
1000
0000
,
1001
0000
1000
0010
0100
0000
0010
0000
,
1100
0000
0001
0100
0001
0100
0010
0000
,
0110
0000
1000
0010
1000
0001
1000
0000
,
0110
0000
1000
0010
1000
0001
1000
0000
,
1001
0000
1000
0010
0100
0000
0010
0000
,
1100
0000
0001
0100
0001
0100
0010
0000
,
0001
0000
0100
0001
1000
0000
0010
0000
,
0110
0000
1000
0010
1000
0001
1000
0000
,
1001
0000
1000
0010
0100
0000
0010
0000
,
0110
0000
1000
0010
1000
0001
1000
0000
,
0110
0000
1000
0010
1000
0001
1000
0000
,
0101
0000
1000
0100
0001
0000
0100
0000
,
0101
0000
1000
0100
0001
0000
0100
0000
,
0101
0000
1000
0100
0001
0000
0100
0000
,
1100
0000
0001
0100
1000
0000
0100
0000
,
1010
0000
0001
0010
1000
0000
0010
0000
,
0101
0000
1000
0100
0001
0000
0100
0000
,
0101
0000
1000
0100
0001
0000
0100
0000
,
1001
0000
1000
0010
0100
0000
0010
0000
,
0020
0000
0000
0000
0000
0000
0000
0000
,
0000
0000
0000
0000
0000
0000
0000
0000
,
0000
0000
0000
0000
0000
0000
2030
0000
,
0000
0000
0000
0000
0000
0000
0000
0000
,
0000
0000
0000
0000
0000
0000
0000
0000
,
3200
0000
0000
0000
0000
0000
0000
0000
,
0000
0000
0000
0000
0000
0000
0300
0000
,
0000
0000
0000
0000
0001
0000
0100
0000
,
1000
0000
0000
0000
0000
0000
0000
0000
,
;
