#VERSION:0.83;
#TITLE:Dreams of an Absolution (Theme of Silver) - Sonic the Hedgehog [OST];
#SUBTITLE:;
#ARTIST:Dancing Monkeys Project;
#TITLETRANSLIT:;
#SUBTITLETRANSLIT:;
#ARTISTTRANSLIT:;
#GENRE:;
#ORIGIN:;
#CREDIT:Gorilla v1.1.3 (Dancing Monkeys v1.06);
#BANNER:images.png;
#BACKGROUND:silver-the-hedgehog-triangle-frames-ojqyrq7g062bssv3.png;
#PREVIEWVID:;
#JACKET:;
#CDIMAGE:;
#DISCIMAGE:;
#LYRICSPATH:;
#CDTITLE:;
#MUSIC:Dreams of an Absolution (Theme of Silver) - Sonic the Hedgehog [OST].mp3;
#OFFSET:-0.187823;
#SAMPLESTART:43.666283;
#SAMPLELENGTH:12.000000;
#SELECTABLE:YES;
#BPMS:0.000=137.999;
#STOPS:;
#DELAYS:;
#WARPS:;
#TIMESIGNATURES:0.000=4=4;
#TICKCOUNTS:0.000=4;
#COMBOS:0.000=1;
#SPEEDS:0.000=1.000=0.000=0,
63.000=1.300=0.000=0;
#SCROLLS:0.000=1.000;
#FAKES:;
#LABELS:0.000=Song Start;
#BGCHANGES:;
#KEYSOUNDS:;
#ATTACKS:
;

//---------------dance-single - Basic----------------
#NOTEDATA:;
#CHARTNAME:Basic;
#STEPSTYPE:dance-single;
#DESCRIPTION:Basic;
#CHARTSTYLE:;
#DIFFICULTY:Easy;
#METER:4;
#RADARVALUES:0.111863,0.114128,0.000000,0.053894,0.000000,247.000000,247.000000,0.000000,17.000000,0.000000,0.000000,0.000000,0.000000,0.000000,0.111863,0.114128,0.000000,0.053894,0.000000,247.000000,247.000000,0.000000,17.000000,0.000000,0.000000,0.000000,0.000000,0.000000;
#CREDIT:Basic;
#NOTES:
// measure 0
0002
0000
0003
0000
,  // measure 1
2000
0000
3000
0000
,  // measure 2
2000
0000
3000
0000
,  // measure 3
0020
0000
0030
0000
,  // measure 4
2000
0000
3000
0000
,  // measure 5
0200
0000
0300
0000
,  // measure 6
2000
0000
3000
0000
,  // measure 7
0001
1000
0000
0000
,  // measure 8
2000
0000
0000
3000
,  // measure 9
0002
0000
0000
0003
,  // measure 10
2000
0000
0000
3000
,  // measure 11
0200
0000
0300
0000
,  // measure 12
0020
0000
0030
0000
,  // measure 13
0002
0000
0000
0003
,  // measure 14
0200
0000
0000
0300
,  // measure 15
0010
0000
0000
0000
,  // measure 16
1000
0001
0001
0100
,  // measure 17
1000
1000
0001
0100
,  // measure 18
0001
0001
1000
0010
,  // measure 19
1000
1000
0001
0100
,  // measure 20
0001
0001
1000
0100
,  // measure 21
1000
0010
0010
1000
,  // measure 22
1000
0001
0001
0100
,  // measure 23
0001
0001
0001
0010
,  // measure 24
1000
0010
0001
0010
,  // measure 25
0001
1000
0010
1000
,  // measure 26
1000
0010
0001
0100
,  // measure 27
1000
0100
0010
1000
,  // measure 28
0001
1000
0001
0100
,  // measure 29
1000
0001
0100
0010
,  // measure 30
1000
0010
0001
0100
,  // measure 31
0001
0010
0200
0000
,  // measure 32
0300
0000
0001
0100
,  // measure 33
0001
0000
1000
0100
,  // measure 34
1000
0000
0001
0100
,  // measure 35
0001
0000
1000
0100
,  // measure 36
0001
0000
1000
0010
,  // measure 37
1000
0000
0001
0100
,  // measure 38
0001
0000
1000
0010
,  // measure 39
1000
0000
0000
0001
,  // measure 40
1000
0000
0001
0100
,  // measure 41
0001
0010
1000
0010
,  // measure 42
0001
0100
1000
0010
,  // measure 43
0001
1000
0010
1000
,  // measure 44
1000
0010
0001
0100
,  // measure 45
0001
0100
1000
0100
,  // measure 46
0001
0010
1000
0010
,  // measure 47
1000
0001
0100
0010
,  // measure 48
0001
1000
0001
0100
,  // measure 49
1000
0001
0100
0010
,  // measure 50
1000
0010
0001
0100
,  // measure 51
0001
1000
0010
0100
,  // measure 52
0001
1000
0001
0100
,  // measure 53
1000
0010
0001
0100
,  // measure 54
1000
0010
0010
1000
,  // measure 55
0001
0000
0000
0000
,  // measure 56
0100
0001
0100
0010
,  // measure 57
0001
1000
0100
0010
,  // measure 58
0100
0001
0100
0010
,  // measure 59
0001
1000
0100
0010
,  // measure 60
0001
0001
0100
0010
,  // measure 61
0001
1000
0100
0010
,  // measure 62
1000
0001
0010
0001
,  // measure 63
0001
1000
0100
0010
,  // measure 64
0100
0001
0100
0010
,  // measure 65
0001
1000
0100
0010
,  // measure 66
0001
0001
0100
0010
,  // measure 67
0001
1000
0100
0010
,  // measure 68
0100
1000
1000
0010
,  // measure 69
0001
1000
0100
0010
,  // measure 70
1000
0001
0010
0001
,  // measure 71
0100
0100
1000
1000
,  // measure 72
1000
0000
0001
0100
,  // measure 73
1000
0000
0001
0100
,  // measure 74
1000
0000
0001
0010
,  // measure 75
2000
0000
3000
0100
,  // measure 76
0001
0000
1000
0100
,  // measure 77
1000
0000
0001
0100
,  // measure 78
0001
0000
1000
0100
,  // measure 79
0020
0000
0000
0000
,  // measure 80
0030
0000
0000
0000
;

//---------------dance-single - Standard----------------
#NOTEDATA:;
#CHARTNAME:Standard;
#STEPSTYPE:dance-single;
#DESCRIPTION:Standard;
#CHARTSTYLE:;
#DIFFICULTY:Medium;
#METER:5;
#RADARVALUES:0.313851,0.383358,0.066575,0.019021,0.000000,693.000000,672.000000,21.000000,6.000000,0.000000,0.000000,0.000000,0.000000,0.000000,0.313851,0.383358,0.066575,0.019021,0.000000,693.000000,672.000000,21.000000,6.000000,0.000000,0.000000,0.000000,0.000000,0.000000;
#CREDIT:Standard;
#NOTES:
0001
0000
0000
0000
0000
0000
0001
0000
,
0001
0000
0000
0000
0000
0000
0001
0000
,
1000
0000
0000
0000
0000
0000
1000
0000
,
0001
0000
2000
0000
0000
0000
0001
0000
,
0000
0000
0000
0000
0000
0000
0001
0000
,
3000
0000
0000
0000
0000
0000
0001
0000
,
0001
0000
0000
0000
0000
0000
0001
0000
,
0001
0000
0000
0000
0000
0000
0001
0000
,
1000
0000
0002
0000
0000
0000
1000
0000
,
0000
0000
0203
0000
0000
0000
0001
0000
,
0000
0000
0300
0000
0000
0000
1000
0000
,
1000
0000
0200
0000
0000
0000
1000
0000
,
0000
0000
0302
0000
0000
0000
0001
0000
,
0000
0000
0002
0000
0000
0000
0001
0000
,
0000
0000
0023
0000
0000
0000
0001
0000
,
0000
0000
0030
0000
0100
0000
0000
0000
,
0001
0000
0010
0000
0100
0000
1000
0000
,
1000
0000
0100
0000
0010
0000
0001
0000
,
0001
0000
0100
0000
0010
0000
1000
0000
,
1000
0000
0010
0000
0100
0000
0001
0000
,
0001
0000
0100
0000
0010
0000
1000
0000
,
0001
0000
0010
0000
0001
0000
1000
0000
,
0001
0000
0010
0000
0100
0000
1000
0000
,
1000
0000
0010
0000
0100
0000
0001
0000
,
1000
0000
0010
0000
0100
0000
0001
0000
,
0001
0000
1000
0000
0001
0000
1000
0000
,
0001
0000
0010
0000
0100
0000
1000
0000
,
0001
0000
0010
0000
0001
0000
1000
0000
,
1000
0000
0100
0000
1000
0000
0001
0000
,
0001
0000
1000
0001
0100
0000
0010
0000
,
0001
0000
0010
0000
0100
0000
1000
0000
,
0001
0000
0000
0000
1000
0000
0001
0000
,
0001
0000
0010
0000
0100
0000
1000
0000
,
1000
0000
0100
0000
0010
0000
0001
0000
,
0001
0000
0010
0000
0100
0000
1000
0000
,
1000
0000
0100
0000
0010
0000
0001
0000
,
1000
0000
0100
0000
0010
0000
0001
0000
,
1000
0000
0100
0000
0010
0000
0001
0000
,
0001
0000
0100
0000
0010
0000
1000
0000
,
1000
0000
0000
0000
0001
0000
1000
0000
,
0001
0000
0010
0000
0100
0000
1000
0000
,
1000
0000
0010
0000
0100
0000
0001
0000
,
1000
0000
0100
0000
0010
0000
0001
0000
,
0001
0000
1000
0000
0001
0000
1000
0000
,
0001
0000
0010
0000
0100
0000
1000
0000
,
1000
0000
0010
0000
0100
0000
0001
0000
,
0001
0000
0010
0000
0100
0000
1000
0000
,
0001
0000
1000
0001
0100
0000
0010
0000
,
1000
0000
0100
0000
1000
0000
0001
0000
,
0001
0000
1000
0001
0100
0000
0010
0000
,
0001
0000
0010
0000
0100
0000
1000
0000
,
1000
0000
0100
0000
0010
0000
0100
0000
,
1000
0000
0100
0000
1000
0000
0001
0000
,
0001
0000
0010
0000
0100
0000
1000
0000
,
0001
0000
0010
0000
0001
0000
1000
0000
,
0001
0000
0000
0000
0000
0000
0000
0000
,
0110
0000
1000
1000
0001
0100
0001
0000
,
0001
0000
0100
0010
0100
0000
0001
0000
,
0110
0000
1000
1000
0001
0100
0001
0000
,
0001
0000
0100
0010
0100
0000
0001
0000
,
0110
0000
1000
1000
0001
0100
0001
0000
,
0001
0000
0100
0010
0100
0000
0001
0000
,
1000
0000
0100
0000
1000
0000
0010
0100
,
0001
0000
0100
0010
0100
0000
0001
0000
,
0110
0000
1000
1000
0001
0100
0001
0000
,
0001
0000
0100
0010
0100
0000
0001
0000
,
0110
0000
1000
1000
0001
0100
0001
0000
,
0001
0000
0100
0010
0100
0000
0001
0000
,
1100
0000
1000
0010
0100
0000
0001
0000
,
0001
0000
0100
0010
0100
0000
0001
0000
,
1000
0000
0100
0000
1000
0000
0010
0000
,
0101
0000
1000
0000
0001
0000
0001
0000
,
0001
0000
0010
0000
0100
0000
1000
0000
,
0001
0000
0010
0000
0100
0000
1000
0000
,
1000
0000
0100
0000
0010
0000
0001
0000
,
0001
0000
0010
0000
0100
0000
1000
0000
,
0001
0000
0010
0000
0100
0000
1000
0000
,
1000
0000
0010
0000
0100
0000
0001
0000
,
1000
0000
0100
0000
0010
0000
0001
0000
,
1000
0000
0000
0000
0001
0000
1000
0000
,
0001
0000
0010
0000
0100
0000
1000
0000
,
0001
0000
0010
0000
0100
0000
1000
0000
,
0001
0000
0010
0000
0100
0000
1000
0000
,
0001
0000
1000
0001
0100
0000
0010
0000
,
0001
0000
0010
0000
0100
0000
1000
0000
,
1000
0000
0100
0000
0010
0000
0001
0000
,
0001
0000
0010
0000
0100
0000
1000
0000
,
1000
0000
0100
0000
0010
0000
0001
0000
,
1000
0000
0010
0000
0100
0000
0001
0000
,
0001
0000
1000
0001
0100
0000
0010
0000
,
0001
0000
0010
0000
0100
0000
1000
0000
,
0001
0000
0010
0000
0001
0000
1000
0000
,
0001
0000
0010
0000
0100
0000
1000
0000
,
1000
0000
0100
0000
0010
0000
0001
0000
,
0001
0000
0010
0000
0001
0000
1000
0000
,
0001
0000
0000
0000
0000
0000
0000
0000
,
0110
0000
1000
1000
0001
0100
0001
0000
,
0001
0000
0100
0010
0100
0000
0001
0000
,
0110
0000
1000
1000
0001
0100
0001
0000
,
0001
0000
0100
0010
0100
0000
0001
0000
,
1100
0000
1000
0010
0100
0000
0001
0000
,
0101
0000
1000
0000
0010
0000
1000
0010
,
1000
0000
0100
0000
1000
0000
0010
0100
,
0001
0000
0100
0010
0100
0000
0001
0000
,
0110
0000
1000
1000
0001
0100
0001
0000
,
0001
0000
0100
0010
0100
0000
0001
0000
,
0110
0000
1000
1000
0001
0100
0001
0000
,
0001
0000
0100
0010
0100
0000
0001
0000
,
0110
0000
1000
1000
0001
0100
0001
0000
,
0001
0000
0100
0010
0100
0000
0001
0000
,
1000
0000
0100
0000
1000
0000
0010
0000
,
1010
0000
0001
0100
0001
0000
0001
0000
,
0000
0000
0001
0000
0000
0000
0000
0000
,
0000
0000
0001
0000
0000
0000
0000
0000
,
0000
0000
0001
0000
0000
0000
0000
0000
,
0000
0000
0001
0000
0000
0000
0000
0000
,
0001
0000
1000
0000
0001
0000
0000
0000
,
1000
0000
0001
0000
1000
0000
0000
0000
,
0001
0000
1000
0000
0001
0000
0000
0000
,
0001
0000
1000
0000
0001
0000
0000
0000
,
1000
0000
0001
0000
1000
0000
0000
0000
,
0001
0000
1000
0000
0001
0000
0000
0000
,
0001
0000
1000
0000
0001
0000
0000
0000
,
0001
0000
0000
0000
0000
0000
0000
0000
,
1000
0000
0010
0000
0100
0000
0000
0000
,
0001
0000
0000
0000
0100
0000
0000
0000
,
1000
0000
0010
0000
0100
0000
0000
0000
,
0001
0000
0000
0000
0000
0000
0001
0000
,
1000
0000
0010
0000
0100
0000
0000
0000
,
2000
0000
0000
0000
0000
0000
0000
0000
,
0000
0000
3000
0000
0000
0000
0000
0000
,
0001
0000
0000
0000
0000
0000
0000
0000
,
0101
0000
0001
0010
0001
0000
0010
0000
,
1000
0000
0001
0000
1000
0000
0010
0000
,
0101
0000
0001
0010
0001
0000
0010
0000
,
1010
0000
0001
0100
0001
0000
0001
0000
,
1010
0000
0001
0100
0001
0000
0001
0000
,
1000
0000
0001
0000
1000
0000
0010
0000
,
1000
0000
0000
0000
0001
0000
0100
0000
,
1010
0000
0001
0100
0001
0000
0001
0000
,
1100
0000
0001
0010
0001
0000
0001
0000
,
0001
0000
0010
0000
0100
0000
0010
0000
,
0001
0000
0010
0000
0001
0000
1000
0000
,
0001
0000
0000
0000
0100
0000
0010
0000
,
0001
0000
1000
0010
1000
0000
0010
0000
,
0001
0000
0010
0000
0100
0000
0010
0000
,
1000
0000
0010
0000
0100
0000
0010
0000
,
1000
0000
0001
0000
1000
0000
0010
0000
,
1000
0000
0001
0100
0010
0000
0010
0000
,
0001
0000
0010
0000
0100
0000
0010
0000
,
1000
0000
0010
1000
0001
0000
0100
0000
,
0001
0000
0010
0000
0100
0000
0010
0000
,
1000
0000
0001
0100
0010
0000
0010
0000
,
0001
0000
0010
0000
0100
0000
0010
0000
,
0001
0000
1000
0010
0100
0000
0010
0000
,
1000
0000
0001
0100
0010
0000
0010
0000
,
0001
0000
0000
0000
0000
0000
0001
0000
,
0001
0000
1000
0001
0100
0000
0010
0000
,
0001
0000
0100
0010
0100
0000
0001
0000
,
0001
0000
1000
0001
0100
0000
0010
0000
,
0001
0000
0010
0000
0100
0000
1000
0000
,
1000
0000
0100
0000
1000
0000
0010
0100
,
0001
0000
0100
0010
0100
0000
0001
0000
,
0001
0000
0010
0000
0100
0000
1000
0000
,
0001
0000
0100
0010
0100
0000
0001
0000
,
0001
0000
1000
0001
0100
0000
0010
0000
,
0001
0000
0010
0000
0100
0000
1000
0000
,
0001
0000
1000
0010
0100
0000
0010
0000
,
0001
0000
1000
0000
0001
0000
1000
0000
,
0001
0000
0100
0010
0100
0000
0001
0000
,
0001
0000
0010
0100
0010
0000
0001
0000
,
0001
0000
1000
0010
0100
0000
0010
0000
,
1000
0000
0001
0000
1000
0000
0010
0000
,
0000
0000
0000
0000
0000
0000
0000
0000
,
0000
0000
0000
0000
0000
0000
0000
0000
,
0000
0000
0000
0000
0000
0000
0000
0000
,
;

//---------------dance-single - Heavy----------------
#NOTEDATA:;
#CHARTNAME:Heavy;
#STEPSTYPE:dance-single;
#DESCRIPTION:Heavy;
#CHARTSTYLE:;
#DIFFICULTY:Hard;
#METER:6;
#RADARVALUES:0.335590,0.410741,0.088766,0.012681,0.000000,741.000000,713.000000,28.000000,4.000000,0.000000,0.000000,0.000000,0.000000,0.000000,0.335590,0.410741,0.088766,0.012681,0.000000,741.000000,713.000000,28.000000,4.000000,0.000000,0.000000,0.000000,0.000000,0.000000;
#CREDIT:Heavy;
#NOTES:
1000
0000
0000
0000
0000
0000
1000
0000
,
0001
0000
0000
0000
0000
0000
0001
0000
,
1000
0000
0000
0000
0000
0000
1000
0000
,
1000
0000
0002
0000
0000
0000
1000
0000
,
0000
0000
0000
0000
0000
0000
0001
0000
,
0003
0000
0000
0000
0000
0000
0001
0000
,
1000
0000
0000
0000
0000
0000
1000
0000
,
0001
0000
0000
0000
0000
0000
0001
0000
,
1000
0000
2000
0000
0000
0000
1000
0000
,
0000
0000
3002
0000
0000
0000
1000
0000
,
0000
0000
0003
0000
0000
0000
0001
0000
,
1000
0000
2000
0000
0000
0000
1000
0000
,
0000
0000
3200
0000
0000
0000
1000
0000
,
0000
0000
0200
0000
0000
0000
0001
0000
,
0000
0000
0302
0000
0000
0000
1000
0000
,
0000
0000
0003
0000
0100
0000
0000
0000
,
1000
0000
0001
0000
1000
0000
0100
0000
,
0001
0000
1000
0000
0001
0000
0100
0000
,
0001
0000
1000
0000
0001
0000
0100
0000
,
1000
0000
0001
0000
1000
0000
0010
0000
,
0001
0000
1000
0000
0001
0000
0010
0000
,
1000
0000
0100
0000
0001
0000
0100
0000
,
1000
0000
0001
0000
1000
0000
0100
0000
,
0001
0000
1000
0000
0001
0000
0100
0000
,
0001
0000
1000
0000
0001
0000
0010
0000
,
0001
0000
1000
0100
0010
0000
0100
0000
,
1000
0000
0001
0000
1000
0000
0100
0000
,
1000
0000
0100
0000
0001
0000
0100
0000
,
1000
0000
0010
1000
0001
0000
0100
0000
,
1000
0000
0010
1000
0010
0000
0100
0000
,
1000
0000
0001
0000
1000
0000
0100
0000
,
0001
0000
0000
0010
0001
0000
1000
0000
,
1000
0000
0001
0000
1000
0000
0100
0000
,
1000
0000
0001
0000
1000
0000
0010
0000
,
0001
0000
1000
0000
0001
0000
0100
0000
,
0001
0000
1000
0000
0001
0000
0010
0000
,
0001
0000
1000
0000
0001
0000
0100
0000
,
1000
0000
0001
0000
1000
0000
0010
0000
,
0001
0000
1000
0000
0001
0000
0010
0000
,
1000
0000
0000
0000
0010
0000
1000
0000
,
1000
0000
0001
0000
1000
0000
0100
0000
,
0001
0000
1000
0000
0001
0000
0010
0000
,
1000
0000
0001
0000
1000
0000
0010
0000
,
0001
0000
1000
0100
0010
0000
0100
0000
,
1000
0000
0001
0000
1000
0000
0100
0000
,
1000
0000
0001
0000
1000
0000
0100
0000
,
0001
0000
1000
0000
0001
0000
0010
0000
,
1000
0000
0010
1000
0010
0000
0100
0000
,
1000
0000
0010
1000
0001
0000
0100
0000
,
1000
0000
0010
1000
0010
0000
0100
0000
,
1000
0000
0001
0000
1000
0000
0100
0000
,
0101
0000
1000
1000
0010
0000
1000
0000
,
1000
0000
0010
1000
0001
0000
0100
0000
,
1000
0000
0001
0000
1000
0000
0100
0000
,
1000
0000
0100
0000
0001
0000
0100
0000
,
1000
0000
0000
0000
0000
0000
0000
0000
,
1100
0000
0100
0100
1000
0100
1000
0000
,
1000
0000
0100
0010
0001
0000
0010
0000
,
1100
0000
0100
0100
1000
0100
1000
0000
,
1000
0000
0100
0010
0001
0000
0010
0000
,
1100
0000
0100
0100
1000
0100
1000
0000
,
1000
0000
0100
0010
0001
0000
0010
0100
,
0001
0000
0100
0000
1001
0000
0010
0001
,
1000
0000
0100
0010
0001
0000
0010
0000
,
1100
0000
0100
0100
1000
0100
1000
0000
,
1000
0000
0100
0010
0001
0000
0010
0000
,
1100
0000
0100
0100
1000
0100
1000
0000
,
1000
0000
0100
0010
0001
0000
0010
0000
,
1001
0000
1000
0001
0010
0001
1000
0000
,
1000
0000
0100
0010
0001
0000
0010
0100
,
0001
0000
0100
0000
1001
0000
0010
0000
,
0110
0000
0001
0100
0001
0000
0001
0000
,
1000
0000
0001
0000
1000
0000
0100
0000
,
0001
0000
1000
0000
0001
0000
0010
0000
,
1000
0000
0001
0000
1000
0000
0100
0000
,
1000
0000
0001
0000
1000
0000
0100
0000
,
1000
0000
0001
0000
1000
0000
0010
0000
,
1000
0000
0001
0000
1000
0000
0100
0000
,
0001
0000
1000
0000
0001
0000
0100
0000
,
1000
0000
0000
0000
0010
0000
1000
0000
,
1000
0000
0001
0000
1000
0000
0100
0000
,
0001
0000
1000
0000
0001
0000
0100
0000
,
0001
0000
1000
0000
0001
0000
0010
0000
,
1000
0000
0010
1000
0010
0000
0100
0000
,
1000
0000
0001
0000
1000
0000
0100
0000
,
0001
1000
0010
0000
0100
0000
0010
0000
,
1000
0000
0001
0000
1000
0000
0100
0000
,
1000
0000
0001
0000
1000
0000
0100
0000
,
0001
0000
1000
0000
0001
0000
0100
0000
,
1000
0000
0010
1000
0010
0000
0100
0000
,
1000
0000
0001
0000
1000
0000
0100
0000
,
1000
0000
0100
0000
0001
0000
0100
0000
,
1000
0000
0001
0000
1000
0000
0100
0000
,
0001
0000
1000
0000
0001
0000
0010
0000
,
1000
0000
0100
0000
0001
0000
0100
0000
,
1000
0000
0000
0000
0000
0000
0000
0000
,
1100
0000
0100
0100
1000
0100
1000
0000
,
1000
0000
0100
0010
0001
0000
0010
0000
,
1100
0000
0100
0100
1000
0100
1000
0000
,
1000
0000
0100
0010
0001
0000
0010
0000
,
1001
0000
1000
0001
0010
0001
1000
0000
,
1100
0000
0001
0100
0010
0000
1000
0100
,
0001
0000
0100
0000
1001
0000
0010
0001
,
1000
0000
0100
0010
0001
0000
0010
0000
,
1100
0000
0100
0100
1000
0100
1000
0000
,
1000
0000
0100
0010
0001
0000
0010
0000
,
1100
0000
0100
0100
1000
0100
1000
0000
,
1000
0000
0100
0010
0001
0000
0010
0000
,
1100
0000
0100
0100
1000
0100
1000
0000
,
1000
0000
0100
0010
0001
0000
0010
0100
,
0001
0000
0100
0000
1001
0000
0010
0000
,
1010
0000
0001
0010
0100
0000
0100
0000
,
0000
0000
1000
0000
0000
0000
0000
0000
,
0000
0000
1000
0000
0000
0000
0000
0000
,
0000
0000
1000
0000
0000
0000
0000
0000
,
0000
0000
0001
0000
0000
0000
0000
0000
,
1000
0000
0010
0000
1000
0000
0000
0000
,
0001
0000
0010
0000
0001
0000
0000
0000
,
0001
0000
0010
0000
0001
0000
0000
0000
,
1000
0000
0010
0000
1000
0000
0000
0000
,
0001
0000
0010
0000
0001
0000
0000
0000
,
0001
0000
0100
0000
0001
0000
0000
0000
,
1000
0000
0100
0000
1000
0000
0000
0000
,
1000
0000
0000
0000
0000
0000
0000
0001
,
0001
0000
0100
0010
0100
0000
0000
0000
,
0001
0000
0000
0000
0100
0000
0000
0000
,
0001
0000
0100
0010
0100
0000
0000
0000
,
1000
0000
0000
0000
0000
0000
1000
0000
,
0001
0000
0100
0010
0100
0000
0000
0000
,
0002
0000
0000
0000
0000
0000
0000
0000
,
0000
0000
1003
0000
0000
0000
0000
0000
,
1000
0000
0000
0000
0000
0000
0000
0000
,
1100
0000
0001
0010
0100
0100
0001
0000
,
1000
0000
0000
0100
1000
0000
0010
0000
,
1100
0000
0001
0010
0100
0100
0001
0000
,
1010
0000
0001
0010
0100
0000
0100
0000
,
0011
0000
1000
0010
0100
0000
0100
0000
,
1000
0000
0000
0100
1000
0000
0010
0000
,
1000
0000
0010
0000
1000
0000
0010
0000
,
1010
0000
0001
0010
0100
0000
0100
0000
,
0011
0000
1000
0010
0100
0000
0100
0000
,
0001
0010
0100
0000
0010
0000
0001
0000
,
0001
0000
0000
0010
0001
0000
0100
0000
,
0001
0000
0000
0000
1000
0000
0010
0001
,
1000
0000
0010
0100
0001
0000
1010
0000
,
0001
0010
0100
0000
0010
0000
0001
0000
,
1000
0100
0010
0000
0100
0000
1000
0000
,
1000
0000
0000
0100
1000
0000
0010
0000
,
0001
0000
0100
0010
1000
0100
0100
0000
,
0001
0010
0100
0000
0010
0000
0001
0000
,
0001
0000
0000
0010
0100
1000
0001
0100
,
0001
0010
0100
0000
0010
0000
0001
0000
,
0001
0000
0100
0010
1000
0100
0100
0000
,
0001
0010
0100
0000
0010
0000
0001
0000
,
0001
0000
0010
0100
1000
0001
0100
0000
,
0001
0000
0100
0010
1000
0100
0100
0000
,
1000
0000
0000
0000
0000
0000
1000
0000
,
1000
0000
0010
1000
0010
0000
0100
0000
,
1000
0000
0100
0010
0001
0000
0010
0100
,
1000
0000
0010
1000
0010
0000
0100
0000
,
1000
0000
0001
0000
1000
0000
0100
0000
,
0001
0000
0100
0000
1001
0000
0010
0001
,
1000
0000
0100
0010
0001
0000
0010
0100
,
1000
0000
0001
0000
1000
0000
0100
0000
,
1000
0000
0100
0010
0001
0000
0010
0100
,
1000
0000
0010
1000
0010
0000
0100
0000
,
1000
0000
0001
0000
1000
0000
0100
0000
,
0001
0000
0010
0100
1000
0001
0100
0000
,
0001
0000
1000
0100
0010
0000
0100
0000
,
1000
0000
0100
0010
0001
0000
0010
0100
,
0001
0000
0010
0100
1000
0000
0100
0010
,
0001
0000
0010
0100
1000
0001
0100
0000
,
1000
0000
0000
0100
1000
0000
0010
0000
,
0000
0000
0000
0000
0000
0000
0000
0000
,
0000
0000
0000
0000
0000
0000
0000
0000
,
0000
0000
0000
0000
0000
0000
0000
0000
,
;
