#TITLE:onlymp3.to - Drake Josh Season 4 Opening-ar_EmK1zuSk-192k-1696893553;
#SUBTITLE:;
#ARTIST:Dancing Monkeys Project;
#TITLETRANSLIT:;
#SUBTITLETRANSLIT:;
#ARTISTTRANSLIT:;
#GENRE:;
#CREDIT:Gorilla v1.1.3 (Dancing Monkeys v1.06);
#BANNER:dj_sp_hero_landscape.jpg;
#BACKGROUND:MV5BYTFkOTM1NTAtZjgyOS00NzgyLTkzNTktYmMyODVlN2RiY2U5XkEyXkFqcGdeQXVyMTA0MTM5NjI2._V1_FMjpg_UX1000_.jpg;
#LYRICSPATH:;
#CDTITLE:;
#MUSIC:onlymp3.to - Drake Josh Season 4 Opening-ar_EmK1zuSk-192k-1696893553.mp3;
#OFFSET:-1.512458;
#SAMPLESTART:1.512458;
#SAMPLELENGTH:12.000000;
#SELECTABLE:YES;
#BPMS:0.000000=129.992996
;
#STOPS:
;
#BGCHANGES:;
#KEYSOUNDS:;
#ATTACKS:;

//---------------dance-single - Basic----------------
#NOTES:
     dance-single:
     Basic:
     Easy:
     5:
     0.267983,0.219830,0.000000,0.019540,0.000000,96.000000,96.000000,0.000000,1.000000,0.000000,0.000000,0.267983,0.219830,0.000000,0.019540,0.000000,96.000000,96.000000,0.000000,1.000000,0.000000,0.000000:
// measure 0
0000
0001
0001
1000
,  // measure 1
1000
0001
0001
0100
,  // measure 2
0100
0010
0010
1000
,  // measure 3
1000
0001
0001
0100
,  // measure 4
1000
0010
0100
0010
,  // measure 5
1000
0001
0100
0010
,  // measure 6
1000
0001
0100
0010
,  // measure 7
1000
1000
0100
1000
,  // measure 8
1000
0001
0100
0010
,  // measure 9
1000
0010
0100
0010
,  // measure 10
0001
0010
1000
0001
,  // measure 11
1000
0100
0001
0100
,  // measure 12
0001
1000
0010
1000
,  // measure 13
0001
0010
1000
0001
,  // measure 14
1000
0001
0100
0010
,  // measure 15
1000
1000
0100
1000
,  // measure 16
1000
0001
0100
0010
,  // measure 17
0001
1000
0010
0100
,  // measure 18
1000
0001
0010
1000
,  // measure 19
1000
0010
0100
0010
,  // measure 20
1000
1000
0100
1000
,  // measure 21
1000
0001
0100
0010
,  // measure 22
1000
0001
0001
1000
,  // measure 23
0001
2000
0000
0000
,  // measure 24
0000
3000
0010
0010
,  // measure 25
1000
0000
0000
0000
;

//---------------dance-single - Standard----------------
#NOTES:
     dance-single:
     Standard:
     Medium:
     7:
     0.432681,0.390808,0.097702,0.019540,0.000000,155.000000,150.000000,5.000000,1.000000,0.000000,0.000000,0.432681,0.390808,0.097702,0.019540,0.000000,155.000000,150.000000,5.000000,1.000000,0.000000,0.000000:
1000
0000
0100
0010
0100
0000
0011
0000
,
1000
0100
0010
0000
0000
0000
1100
0000
,
1000
0000
0001
1000
0100
0100
1000
0100
,
0001
0100
0010
0000
0100
0000
1100
0000
,
1000
0000
0001
1000
0100
0100
1000
0000
,
0110
0000
0001
0010
0001
0100
0010
0100
,
1000
0000
0100
0010
0100
0010
0001
0010
,
0001
0100
0100
0000
0001
0000
0100
0001
,
1000
0000
0100
0010
0100
0010
0001
0010
,
1000
0000
0001
1000
0100
0100
1000
0100
,
0001
0100
0010
0001
0100
0000
0010
0000
,
1000
0000
0001
0000
0100
0000
0010
1000
,
1000
0000
0001
0100
0001
0000
0100
0001
,
1000
0100
1000
0010
1000
0000
0001
0100
,
1000
0000
0100
0010
0100
0010
0001
0010
,
0001
0100
0100
0000
0001
0000
0100
0001
,
1000
0000
0100
0010
0100
0010
0001
0010
,
0001
0000
0010
0100
0010
0100
1000
0100
,
1000
0000
0100
0010
0100
0000
0011
0000
,
1000
0000
0001
1000
0100
0100
1000
0100
,
0001
0100
0100
0000
0001
0000
0100
0001
,
1000
0000
0100
0010
0100
0010
0001
0010
,
1000
0100
0010
0000
0010
0000
0001
0000
,
1000
0000
0020
0000
0100
0000
0000
0000
,
0000
0000
0030
0001
0010
0001
0001
0000
,
0001
0000
0000
0000
0000
0000
0000
0000
,
;

//---------------dance-single - Heavy----------------
#NOTES:
     dance-single:
     Heavy:
     Hard:
     8:
     0.488510,0.425615,0.254025,0.000000,0.000000,175.000000,162.000000,13.000000,0.000000,0.000000,0.000000,0.488510,0.425615,0.254025,0.000000,0.000000,175.000000,162.000000,13.000000,0.000000,0.000000,0.000000:
1000
0010
1000
0010
1000
0000
0011
0000
,
1000
0100
0010
0010
0001
0000
1100
0000
,
1000
0100
1000
0010
1000
1000
0100
0010
,
1000
0100
0010
0001
1000
0000
0101
0000
,
1000
0100
1000
0010
1000
1000
0100
0000
,
0011
0000
0001
0100
0001
0000
0010
0000
,
1001
0000
1000
0100
0010
0001
0100
0010
,
1000
0010
0010
0010
1000
0000
0001
0000
,
1001
0000
1000
0100
0010
0001
0100
0010
,
1000
0100
1000
0010
1000
1000
0100
0000
,
0101
0000
0100
1000
0001
0100
0010
0100
,
1000
0001
0100
0000
0010
0000
1000
0100
,
1000
0010
1000
0100
0010
0100
1000
0000
,
1001
0000
0010
1000
0010
1000
0001
0000
,
1001
0000
1000
0100
0010
0001
0100
0010
,
1000
0010
0010
0010
1000
0000
0001
0000
,
1001
0000
1000
0100
0010
0001
0100
0000
,
1001
0000
1000
0100
0010
0001
0100
0010
,
1000
0010
1000
0010
1000
0000
0011
0000
,
1000
0100
1000
0010
1000
1000
0100
0010
,
1000
0010
0010
0010
1000
0000
0001
0000
,
1001
0000
1000
0100
0010
0001
0100
0010
,
0001
1000
0010
1000
1000
0000
0001
0100
,
0001
0000
2000
0000
1000
0000
1000
0000
,
0001
0000
3000
1000
0100
1000
1000
0100
,
1000
0000
0000
0000
0000
0001
0000
0000
,
;
