#TITLE:DBZ Super Survivor;
#SUBTITLE:;
#ARTIST:Dancing Monkeys Project;
#TITLETRANSLIT:;
#SUBTITLETRANSLIT:;
#ARTISTTRANSLIT:;
#GENRE:;
#CREDIT:Gorilla v1.1.3 (Dancing Monkeys v1.06);
#BANNER:491ef8a966bcb2c0f9597f7f6efd4838.jpg;
#BACKGROUND:4669titlescreen.png;
#LYRICSPATH:;
#CDTITLE:;
#MUSIC:onlymp3.to - Super Survivor-H_Z_OjdT7OY-192k-1696867107.mp3;
#OFFSET:-0.270229;
#SAMPLESTART:37.766064;
#SAMPLELENGTH:12.000000;
#SELECTABLE:YES;
#BPMS:0.000000=160.018005
;
#STOPS:
;
#BGCHANGES:;
#KEYSOUNDS:;
#ATTACKS:;

//---------------dance-single - Basic----------------
#NOTES:
     dance-single:
     Basic:
     Easy:
     6:
     0.353472,0.321184,0.009517,0.038066,0.000000,260.000000,259.000000,1.000000,4.000000,0.000000,0.000000,0.353472,0.321184,0.009517,0.038066,0.000000,260.000000,259.000000,1.000000,4.000000,0.000000,0.000000:
// measure 0
2000
0000
0000
3000
,  // measure 1
0002
0000
0000
0003
,  // measure 2
1000
0100
0010
0001
,  // measure 3
1000
0010
0100
0010
,  // measure 4
0001
0100
0010
0100
,  // measure 5
0010
1000
0001
0100
,  // measure 6
1000
0100
0010
0001
,  // measure 7
1000
0001
0100
0010
,  // measure 8
1000
0010
0100
0010
,  // measure 9
1000
0100
0010
1000
,  // measure 10
0001
0010
1000
0100
,  // measure 11
0001
1000
0010
0001
,  // measure 12
1000
0010
1000
0001
,  // measure 13
1000
0100
0010
0100
,  // measure 14
0001
1000
0001
0010
,  // measure 15
0001
1000
0001
0001
,  // measure 16
1000
0001
1000
0010
,  // measure 17
1000
0001
0100
0010
,  // measure 18
0001
1000
0100
0010
,  // measure 19
1000
0001
0010
0100
,  // measure 20
1000
0001
0010
0100
,  // measure 21
0001
1000
0010
0100
,  // measure 22
1000
0001
0100
0010
,  // measure 23
1000
0100
0010
0001
,  // measure 24
1000
0001
0100
0010
,  // measure 25
1000
0001
0100
0010
,  // measure 26
0001
0100
0010
0100
,  // measure 27
1000
0010
0100
0001
,  // measure 28
1000
0010
0100
0001
,  // measure 29
1000
0001
0100
0010
,  // measure 30
0001
0100
0010
0001
,  // measure 31
1000
0100
0010
1000
,  // measure 32
0001
0010
0001
0010
,  // measure 33
1000
0001
0010
0001
,  // measure 34
1000
0000
0000
0001
,  // measure 35
1000
0100
0010
0001
,  // measure 36
1000
0001
0100
0010
,  // measure 37
1000
0001
0010
0100
,  // measure 38
0001
1000
0100
0010
,  // measure 39
1000
0001
0010
0100
,  // measure 40
1000
0001
0100
0010
,  // measure 41
0001
1000
0010
0100
,  // measure 42
1000
0001
0100
0010
,  // measure 43
0001
1000
0100
0010
,  // measure 44
1000
0010
1000
0100
,  // measure 45
1000
0001
0100
0010
,  // measure 46
1000
0100
0010
0100
,  // measure 47
1000
0010
0100
0001
,  // measure 48
1000
0010
1000
0100
,  // measure 49
1000
0001
0100
0010
,  // measure 50
1000
0000
0001
0000
,  // measure 51
1000
0001
0100
0010
,  // measure 52
0001
1000
0100
0010
,  // measure 53
1000
0001
0100
0010
,  // measure 54
0001
1000
0010
0100
,  // measure 55
0001
1000
0010
0100
,  // measure 56
0001
1000
0100
0010
,  // measure 57
1000
0010
1000
0100
,  // measure 58
1000
0100
0010
2002
,  // measure 59
0000
3003
0001
0100
,  // measure 60
0010
0001
1000
0001
,  // measure 61
1000
0001
0100
0010
,  // measure 62
0001
1000
0001
0100
,  // measure 63
1000
0001
0100
0010
,  // measure 64
1000
0100
0010
0001
,  // measure 65
1000
0001
0100
0010
,  // measure 66
1000
0001
0010
0100
,  // measure 67
1000
0100
0010
0000
;

//---------------dance-single - Standard----------------
#NOTES:
     dance-single:
     Standard:
     Medium:
     7:
     0.437762,0.449657,0.057099,0.000000,0.000000,322.000000,316.000000,6.000000,0.000000,0.000000,0.000000,0.437762,0.449657,0.057099,0.000000,0.000000,322.000000,316.000000,6.000000,0.000000,0.000000,0.000000:
0000
0000
0000
0000
0001
0000
0000
0000
,
0000
0000
0001
0000
1000
0001
0010
0000
,
1000
0000
0100
0000
0001
0000
0000
0000
,
0001
0000
1000
0000
0010
0000
0000
0000
,
1000
0000
0100
0000
0001
0000
0000
0000
,
0000
0000
0001
0000
0101
0000
1000
0100
,
0001
0100
0100
0000
0010
0000
0100
0000
,
0001
0000
1000
0000
0010
0000
0100
0001
,
1000
0000
0010
0100
0001
0000
0010
0001
,
1000
0010
0100
0000
1001
0000
1000
0000
,
0001
0000
0100
0000
0010
0000
1000
0001
,
1000
0000
0010
0000
0001
0000
0100
1000
,
0001
0000
0100
0000
0010
0000
1000
0001
,
0001
0100
0100
0000
0010
0000
0100
0000
,
1000
0000
0100
0000
1000
0000
0010
0000
,
1000
0000
0101
0000
0001
0000
0000
0100
,
0001
0000
1100
0000
1000
0000
0000
0100
,
0001
0000
1000
0000
0010
0000
0100
0001
,
0001
0000
1000
0000
0010
0000
0100
0001
,
1000
0000
0001
0000
0010
0000
0100
1000
,
0001
0000
1000
0000
0100
0000
0010
0001
,
0001
0000
1000
0000
0010
0000
0100
0001
,
0001
0000
1000
0000
0100
0000
0010
0001
,
0001
1000
0001
0000
0100
0000
1000
0000
,
0001
0000
1000
0000
0010
0000
0100
0001
,
0001
0000
1000
0000
0100
0000
0010
0001
,
0001
0100
0100
0000
0010
0000
0100
0000
,
0001
0010
0010
0000
0100
0000
0010
0000
,
0001
0010
0010
0000
0100
0000
0010
0000
,
0001
0000
1000
0000
0010
0000
0100
0001
,
0001
0100
0100
0000
0010
0000
0100
0000
,
0001
0010
0010
0000
0100
0000
0010
0000
,
1000
0000
0010
0100
0001
0000
0010
0001
,
0001
0100
0100
0000
0010
0000
0100
0000
,
1000
0000
0000
0000
0000
0000
0100
0010
,
0001
1000
0001
0000
0100
0000
1000
0000
,
0001
0000
1000
0000
0010
0000
0100
0001
,
1000
0000
0001
0000
0100
0000
0010
1000
,
1000
0000
0001
0000
0100
0000
0010
1000
,
0001
0000
1000
0000
0010
0000
0100
0001
,
1000
0000
0001
0000
0100
0000
0010
1000
,
0001
0000
1000
0000
0100
0000
0010
0001
,
0001
0000
1000
0000
0010
0000
0100
0001
,
0001
0000
1000
0000
0100
0000
0010
0001
,
0001
0000
0100
0000
0010
0000
1000
0001
,
0001
0000
1000
0000
0010
0000
0100
0001
,
0001
0100
0100
0000
0010
0000
0100
0000
,
1000
0100
0100
0000
0010
0000
0100
0000
,
0001
0000
0100
0000
0010
0000
1000
0001
,
0001
0000
1000
0000
0010
0000
0100
0001
,
1000
0000
0000
0000
0010
0000
0000
1000
,
0001
0000
1000
0000
0010
0000
0100
0001
,
0001
0000
1000
0000
0010
0000
0100
0001
,
1000
0000
0001
0000
0100
0000
0010
1000
,
1000
0000
0001
0000
0100
0000
0010
1000
,
1000
0000
0001
0000
0100
0000
0010
1000
,
0001
0000
1000
0000
0100
0000
0010
0001
,
0001
0000
0100
0000
0010
0000
1000
0001
,
0001
1000
0001
0000
0100
0000
1000
0000
,
0000
0001
0000
0000
0100
0000
0000
0010
,
0000
0000
0000
0000
1100
0000
0100
0010
,
0001
0000
1000
0000
0010
0000
0100
0001
,
0000
0000
0001
0000
0101
0000
1000
0100
,
0001
0000
1000
0000
0010
0000
0100
0001
,
0001
1000
0001
0000
0100
0000
1000
0000
,
0001
0000
1000
0000
0010
0000
0100
0001
,
1000
0000
0001
0000
0100
0000
0010
1000
,
1000
0000
0100
0000
0001
0000
0000
0000
,
;

//---------------dance-single - Heavy----------------
#NOTES:
     dance-single:
     Heavy:
     Hard:
     8:
     0.519332,0.449657,0.066616,0.000000,0.000000,382.000000,375.000000,7.000000,0.000000,0.000000,0.000000,0.519332,0.449657,0.066616,0.000000,0.000000,382.000000,375.000000,7.000000,0.000000,0.000000,0.000000:
0000
0000
0000
0000
1000
0000
0000
0000
,
0000
0001
0010
0000
0100
0010
0100
0000
,
0001
1000
0100
0000
1000
0000
0000
0000
,
1000
0100
0010
0000
0001
0000
0000
0000
,
0001
1000
0100
0000
1000
0000
0000
0000
,
0000
0000
1000
0000
1100
0000
0100
0010
,
1000
0100
0100
0000
0010
0000
0100
0010
,
0001
0100
0010
0000
0100
0000
0001
1000
,
1000
0000
0010
1000
0100
0000
0010
0001
,
0001
1000
0010
0000
0011
0000
1000
0000
,
1000
0100
0010
0000
0001
0000
0100
0010
,
0001
0000
0010
0001
0010
0000
0100
0010
,
1000
0100
0010
0000
0001
0000
0100
0010
,
1000
0100
0100
0000
0010
0000
0100
0000
,
1100
0000
0001
0000
1000
0010
0000
1000
,
0001
0000
0011
0000
0001
0000
0001
1000
,
1000
0000
1010
0000
1000
0000
1000
0001
,
0001
0100
0010
0000
0100
0000
0001
1000
,
0001
0010
0100
0000
0010
0000
0001
1000
,
1000
0010
0100
0000
0010
0000
1000
0001
,
1000
0100
0010
0000
0100
0000
1000
0001
,
1000
0100
0010
0000
0100
0000
1000
0001
,
0001
0100
0010
0000
0100
0000
0001
1000
,
1000
0010
0100
0000
0001
0000
0100
0001
,
0001
0100
0010
0000
0100
0000
0001
1000
,
0001
0010
0100
0000
0010
0000
0001
1000
,
1000
0100
0100
0000
0010
0000
0100
0010
,
1000
0100
0100
0000
0010
0000
0100
0010
,
1000
0100
0100
0000
0010
0000
0100
0010
,
0001
0100
0010
0000
0100
0000
0001
1000
,
1000
0100
0100
0000
0010
0000
0100
0010
,
0001
0100
0100
0000
0010
0000
0100
0010
,
1000
0000
0010
1000
0100
0000
0010
0001
,
1000
0100
0100
0000
0010
0000
0100
0010
,
0001
0000
0000
0000
0000
0000
0100
0010
,
1000
0010
0100
0000
0001
0000
0100
0001
,
0001
0100
0010
0000
0100
0000
0001
1000
,
0001
0010
0100
0000
0010
0000
0001
1000
,
1000
0100
0010
0000
0100
0000
1000
0001
,
1000
0100
0010
0000
0100
0000
1000
0001
,
0001
0100
0010
0000
0100
0000
0001
1000
,
1000
0100
0010
0000
0100
0000
1000
0001
,
1000
0100
0010
0000
0100
0000
1000
0001
,
1000
0100
0010
0000
0100
0000
1000
0001
,
1000
0100
0010
0000
0001
0000
0100
0010
,
0001
0100
0010
0000
0100
0000
0001
1000
,
1000
0100
0100
0000
0010
0000
0100
0010
,
1000
0100
0100
0000
0010
0000
0100
0010
,
1000
0100
0010
0000
0001
0000
0100
0010
,
0001
0100
0010
0000
0100
0000
0001
1000
,
0001
0001
0000
0000
1000
0000
0000
0001
,
0001
0100
0010
0000
0100
0000
0001
1000
,
1000
0100
0010
0000
0100
0000
1000
0001
,
0001
0100
0010
0000
0100
0000
0001
1000
,
1000
0010
0100
0000
0010
0000
1000
0001
,
1000
0010
0100
0000
0010
0000
1000
0001
,
1000
0100
0010
0000
0100
0000
1000
0001
,
1000
0100
0010
0000
0001
0000
0100
0010
,
1000
0010
0100
0000
0001
0000
0100
0001
,
0000
0001
0000
0000
0010
0000
0000
0100
,
0000
0001
0000
0000
1010
0000
0100
0001
,
0001
0100
0010
0000
0100
0000
0001
1000
,
0000
0000
1000
0000
1100
0000
0100
0010
,
0001
0100
0010
0000
0100
0000
0001
1000
,
1000
0010
0100
0000
0001
0000
0100
0001
,
0001
0100
0010
0000
0100
0000
0001
1000
,
1000
0010
0100
0000
0010
0000
1000
0001
,
0001
1000
0100
0000
1000
0000
0000
0000
,
;
