#VERSION:0.83;
#TITLE:Dragon Dance;
#SUBTITLE:;
#ARTIST:Unknown artist;
#TITLETRANSLIT:;
#SUBTITLETRANSLIT:;
#ARTISTTRANSLIT:;
#GENRE:;
#ORIGIN:;
#CREDIT:;
#BANNER:maxresdefault.png;
#BACKGROUND:719330a53f40e905b278c19a7094b4783d2624jpg.png;
#PREVIEWVID:;
#JACKET:;
#CDIMAGE:;
#DISCIMAGE:;
#LYRICSPATH:;
#CDTITLE:;
#MUSIC:onlymp3.to - Death Battle Dragon Dance From the Rooster Teeth Series -UiXYyZh5vu0-192k-1706590127.mp3;
#OFFSET:0.000000;
#SAMPLESTART:100.000000;
#SAMPLELENGTH:12.000000;
#SELECTABLE:YES;
#BPMS:0.000=100.000,
39.000=150.000;
#STOPS:;
#DELAYS:;
#WARPS:;
#TIMESIGNATURES:0.000=4=4;
#TICKCOUNTS:0.000=4;
#COMBOS:0.000=1;
#SPEEDS:0.000=1.000=0.000=0;
#SCROLLS:0.000=1.000;
#FAKES:;
#LABELS:0.000=Song Start;
#BGCHANGES:;
#KEYSOUNDS:;
#ATTACKS:
;

//---------------dance-single - ----------------
#NOTEDATA:;
#CHARTNAME:;
#STEPSTYPE:dance-single;
#DESCRIPTION:;
#CHARTSTYLE:;
#DIFFICULTY:Easy;
#METER:1;
#RADARVALUES:0.209325,0.245406,0.000000,0.225851,0.000000,266.000000,266.000000,0.000000,41.000000,0.000000,0.000000,0.000000,0.000000,0.000000,0.209325,0.245406,0.000000,0.225851,0.000000,266.000000,266.000000,0.000000,41.000000,0.000000,0.000000,0.000000,0.000000,0.000000;
#CREDIT:;
#NOTES:
// measure 0
0000
0000
0000
0000
,  // measure 1
1000
0000
0001
0000
,  // measure 2
1000
0000
0000
0001
,  // measure 3
0000
0000
1000
0000
,  // measure 4
0000
0001
0000
0000
,  // measure 5
1000
0000
0000
0001
,  // measure 6
0000
0000
1000
0000
,  // measure 7
0000
0001
0000
0000
,  // measure 8
1000
0000
0000
0001
,  // measure 9
0000
2000
0000
3000
,  // measure 10
1000
0100
0001
0010
,  // measure 11
0100
1000
0010
0100
,  // measure 12
0001
0100
0010
1000
,  // measure 13
0100
0001
0010
1000
,  // measure 14
0100
0001
0010
0100
,  // measure 15
1000
0010
0100
0001
,  // measure 16
1000
0100
0010
1000
,  // measure 17
0010
0001
0100
0001
,  // measure 18
1000
0010
0100
0001
,  // measure 19
1000
0100
0010
1000
,  // measure 20
0001
0100
0010
1000
,  // measure 21
0001
0010
1000
0100
,  // measure 22
0010
0001
0010
1000
,  // measure 23
0100
0010
0001
0100
,  // measure 24
1000
0001
0010
2000
,  // measure 25
0000
3002
0000
0000
,  // measure 26
2003
0000
0000
3002
,  // measure 27
0000
0000
2003
0000
,  // measure 28
0000
3000
0020
0000
,  // measure 29
0000
0230
0000
0000
,  // measure 30
0302
0000
0000
0003
,  // measure 31
1000
0010
0100
0001
,  // measure 32
0000
1000
0010
0100
,  // measure 33
0001
0010
1000
0100
,  // measure 34
0001
0010
1000
0100
,  // measure 35
0001
0010
1000
0100
,  // measure 36
0010
1000
0010
0100
,  // measure 37
0001
0100
1000
0100
,  // measure 38
0001
0010
1000
0010
,  // measure 39
0100
0001
0002
0000
,  // measure 40
0000
0000
0000
0000
,  // measure 41
0000
0000
0000
0000
,  // measure 42
0003
0010
1000
0010
,  // measure 43
0100
1000
0100
0001
,  // measure 44
0010
0100
1000
0100
,  // measure 45
0010
0001
0100
1000
,  // measure 46
1000
0100
0001
0010
,  // measure 47
1000
0010
1000
0010
,  // measure 48
0100
1000
0010
0100
,  // measure 49
0001
0010
1000
0100
,  // measure 50
0001
0010
0100
1000
,  // measure 51
0001
0010
0000
2000
,  // measure 52
0000
3000
0002
0000
,  // measure 53
0003
2000
0000
3000
,  // measure 54
0002
0000
0003
2000
,  // measure 55
0000
3000
0002
0000
,  // measure 56
0003
2000
0000
3000
,  // measure 57
0002
0000
0003
2000
,  // measure 58
0000
3000
0002
0000
,  // measure 59
0003
2000
0000
3000
,  // measure 60
0002
0000
0003
2000
,  // measure 61
0000
3000
0002
0000
,  // measure 62
0003
2000
0000
3000
,  // measure 63
0002
0000
0003
2000
,  // measure 64
0000
3000
0002
0000
,  // measure 65
0003
2000
0000
3000
,  // measure 66
0002
0000
0003
1000
,  // measure 67
0100
0010
1000
0001
,  // measure 68
0010
0100
1000
0010
,  // measure 69
0100
0001
0010
1000
,  // measure 70
0100
0001
0010
0100
,  // measure 71
1000
0100
0001
0010
,  // measure 72
1000
0100
0000
0000
,  // measure 73
0000
0000
0000
0000
,  // measure 74
0000
0001
0000
2000
,  // measure 75
0000
3000
0002
0000
,  // measure 76
0003
2000
0000
3000
,  // measure 77
0002
0000
0003
2000
,  // measure 78
0000
3000
0020
0000
,  // measure 79
0030
2000
0000
3000
,  // measure 80
0020
0000
0030
0200
,  // measure 81
0000
0302
0000
0003
,  // measure 82
1000
0100
0001
0010
,  // measure 83
1000
0100
0001
1000
,  // measure 84
0010
1000
0001
0100
,  // measure 85
0001
0010
1000
0100
,  // measure 86
0001
0010
1000
0100
,  // measure 87
0010
0001
1000
0100
,  // measure 88
0010
1000
0001
0010
,  // measure 89
1000
0100
0010
1000
,  // measure 90
0001
0010
0100
1000
,  // measure 91
0001
0010
0100
0001
,  // measure 92
0010
1000
0100
0010
,  // measure 93
0001
0010
1000
0100
,  // measure 94
0010
0001
1000
0100
,  // measure 95
0010
0001
1000
0100
,  // measure 96
0010
0001
0010
1000
,  // measure 97
0002
0000
0000
0000
,  // measure 98
0000
0000
0000
0000
,  // measure 99
0003
0000
0000
0000
;

//---------------dance-single - ----------------
#NOTEDATA:;
#CHARTNAME:;
#STEPSTYPE:dance-single;
#DESCRIPTION:;
#CHARTSTYLE:;
#DIFFICULTY:Beginner;
#METER:1;
#RADARVALUES:0.130631,0.163604,0.000000,0.121188,0.000000,166.000000,166.000000,0.000000,22.000000,0.000000,0.000000,0.000000,0.000000,0.000000,0.130631,0.163604,0.000000,0.121188,0.000000,166.000000,166.000000,0.000000,22.000000,0.000000,0.000000,0.000000,0.000000,0.000000;
#CREDIT:;
#NOTES:
0000
0000
0000
0000
,
1000
0000
0001
0000
,
1000
0000
0000
0001
,
0000
0000
1000
0000
,
0000
0001
0000
0000
,
1000
0000
0000
0001
,
0000
0000
1000
0000
,
0000
0001
0000
0000
,
1000
0000
0000
0001
,
0000
1000
0000
0000
,
1000
0000
0001
0000
,
0100
0000
0010
0000
,
0001
0000
0010
0000
,
0100
0000
0010
0000
,
0100
0000
0010
0000
,
1000
0000
0100
0000
,
1000
0000
0010
0000
,
0010
0000
0100
0000
,
1000
0000
0100
0000
,
1000
0000
0010
0000
,
0001
0000
0010
0000
,
0001
0000
1000
0000
,
0010
0000
0010
0000
,
0100
0000
0001
0000
,
1000
0000
0000
1000
,
0000
0001
0000
0000
,
0100
0000
0000
0010
,
0000
0000
0100
0000
,
0000
0000
0010
0000
,
0000
0100
0000
0000
,
0001
0000
0000
0000
,
1000
1000
1000
1000
,
0000
1000
0000
0100
,
0000
0010
0000
0100
,
0000
0010
0000
0100
,
0000
0010
0000
0100
,
0000
1000
0000
0001
,
0000
0010
0000
0100
,
0000
0001
0000
1000
,
0000
1000
2000
0000
,
0000
0000
0000
0000
,
0000
0000
0000
0000
,
3000
0000
1000
0000
,
0001
0000
0100
0000
,
0010
0000
1000
0000
,
0010
0000
0100
0000
,
1000
0000
0001
0000
,
0100
0000
1000
0000
,
0100
0000
0010
0000
,
0001
0000
1000
0000
,
0001
0000
0100
0000
,
0001
0000
1000
2000
,
0000
3000
0002
0000
,
0003
2000
0000
3000
,
0002
0000
0003
2000
,
0000
3000
0002
0000
,
0003
2000
0000
3000
,
0002
0000
0003
2000
,
0000
3000
0002
0000
,
0003
2000
0000
3000
,
0002
0000
0003
2000
,
0000
3000
0002
0000
,
0003
2000
0000
3000
,
0002
0000
0003
2000
,
0000
3000
0002
0000
,
0003
2000
0000
3000
,
0002
0000
0003
0000
,
0100
0000
1000
0000
,
0010
0000
1000
0000
,
0100
0000
0010
0000
,
0100
0000
0010
0000
,
1000
0000
0001
0000
,
0100
0100
0000
0000
,
0000
0000
0000
0000
,
0000
0000
0000
1000
,
0000
0000
0001
0000
,
0000
1000
0000
0000
,
0001
0000
0000
0100
,
0000
0010
0010
0000
,
1000
1000
0000
0010
,
0010
0000
0100
0100
,
0000
0001
0000
0000
,
1000
0000
0001
0000
,
1000
0000
0001
0000
,
0010
0000
0001
0000
,
0001
0000
1000
0000
,
0001
0000
1000
0000
,
0010
0000
1000
0000
,
0010
0000
0001
0000
,
1000
0000
0010
0000
,
0001
0000
0100
0000
,
0001
0000
0100
0000
,
0010
0000
0100
0000
,
0001
0000
1000
0000
,
0010
0000
1000
0000
,
0010
0000
1000
0000
,
0010
0000
0010
0000
,
2000
0000
0000
0000
,
0000
0000
0000
0000
,
3000
0000
0000
0000
;
