#VERSION:0.83;
#TITLE:DOWN;
#SUBTITLE:;
#ARTIST:Dancing Monkeys Project;
#TITLETRANSLIT:;
#SUBTITLETRANSLIT:;
#ARTISTTRANSLIT:;
#GENRE:;
#ORIGIN:;
#CREDIT:Gorilla v1.1.3 (Dancing Monkeys v1.06);
#BANNER:maxresdefault.png;
#BACKGROUND:artworks-000069426708-p3xhp8-t500x500.png;
#PREVIEWVID:;
#JACKET:;
#CDIMAGE:;
#DISCIMAGE:;
#LYRICSPATH:;
#CDTITLE:;
#MUSIC:jay sean - down (speed up).mp3;
#OFFSET:-0.637007;
#SAMPLESTART:40.029663;
#SAMPLELENGTH:12.000000;
#SELECTABLE:YES;
#BPMS:0.000=158.405;
#STOPS:;
#DELAYS:;
#WARPS:;
#TIMESIGNATURES:0.000=4=4;
#TICKCOUNTS:0.000=4;
#COMBOS:0.000=1;
#SPEEDS:0.000=1.000=0.000=0;
#SCROLLS:0.000=1.000;
#FAKES:;
#LABELS:0.000=Song Start;
#BGCHANGES:;
#KEYSOUNDS:;
#ATTACKS:
;

//---------------dance-single - Basic----------------
#NOTEDATA:;
#CHARTNAME:Basic;
#STEPSTYPE:dance-single;
#DESCRIPTION:Basic;
#CHARTSTYLE:;
#DIFFICULTY:Easy;
#METER:4;
#RADARVALUES:0.120914,0.106505,0.000000,0.005643,0.000000,150.000000,150.000000,0.000000,1.000000,0.000000,0.000000,0.000000,0.000000,0.000000,0.120914,0.106505,0.000000,0.005643,0.000000,150.000000,150.000000,0.000000,1.000000,0.000000,0.000000,0.000000,0.000000,0.000000;
#CREDIT:Basic;
#NOTES:
// measure 0
0000
0001
0000
0010
,  // measure 1
0000
0100
0000
0001
,  // measure 2
0000
1000
0000
0100
,  // measure 3
0000
1000
0000
0100
,  // measure 4
0000
1000
0000
0100
,  // measure 5
0000
0001
0000
2000
,  // measure 6
0000
0000
0000
3000
,  // measure 7
0000
0010
0000
0100
,  // measure 8
0000
0001
0000
1000
,  // measure 9
0000
0010
0000
0001
,  // measure 10
0000
0010
0000
1000
,  // measure 11
0000
0100
0000
0001
,  // measure 12
0000
0010
0000
0100
,  // measure 13
0000
0010
0000
0001
,  // measure 14
0000
0010
0000
1000
,  // measure 15
0000
0010
0000
0100
,  // measure 16
0000
0001
0000
1000
,  // measure 17
0000
0010
0000
0100
,  // measure 18
0000
0100
0000
0100
,  // measure 19
0000
1000
0000
0100
,  // measure 20
0000
0100
0000
0001
,  // measure 21
0001
0000
0010
0000
,  // measure 22
0001
0000
1000
0000
,  // measure 23
0100
0000
0010
0000
,  // measure 24
0100
0000
0010
0000
,  // measure 25
0100
0000
0001
0000
,  // measure 26
0010
0000
1000
0000
,  // measure 27
0010
0000
0100
0000
,  // measure 28
0010
0000
0010
0000
,  // measure 29
1000
0000
0001
0000
,  // measure 30
0001
0000
0100
0000
,  // measure 31
0010
0000
1000
0000
,  // measure 32
0001
0000
0010
0000
,  // measure 33
1000
0000
0001
0000
,  // measure 34
0010
0000
0100
0000
,  // measure 35
0001
0000
1000
0000
,  // measure 36
0100
0000
0001
0000
,  // measure 37
1000
0000
0010
0000
,  // measure 38
0100
0000
0010
0000
,  // measure 39
0001
0000
0100
0000
,  // measure 40
0100
0000
1000
0000
,  // measure 41
0010
0000
0001
0000
,  // measure 42
1000
0000
0010
0000
,  // measure 43
0001
0000
0001
0000
,  // measure 44
1000
0000
1000
1000
,  // measure 45
0000
0001
0000
0000
,  // measure 46
0100
0000
1000
0000
,  // measure 47
1000
0000
0001
0000
,  // measure 48
0001
0000
1000
0000
,  // measure 49
1000
0000
0001
0000
,  // measure 50
0001
0000
1000
0000
,  // measure 51
0010
0000
0001
0000
,  // measure 52
0001
0000
1000
0000
,  // measure 53
0010
0000
1000
0000
,  // measure 54
0100
0000
0001
0000
,  // measure 55
0100
0000
1000
0000
,  // measure 56
0100
0000
0010
0000
,  // measure 57
0001
0000
1000
0000
,  // measure 58
0001
0000
0010
0000
,  // measure 59
0001
0000
0010
0000
,  // measure 60
0001
0000
1000
0000
,  // measure 61
0001
0000
0100
0000
,  // measure 62
1000
0000
0100
0000
,  // measure 63
0001
0000
0010
0000
,  // measure 64
0001
0000
0001
0000
,  // measure 65
0001
0000
0100
0000
,  // measure 66
0100
0000
0010
0000
,  // measure 67
0001
0000
0100
0000
,  // measure 68
1000
0000
1000
0000
,  // measure 69
0100
0000
0001
0000
,  // measure 70
0010
0000
0010
0000
,  // measure 71
0001
0000
0100
0000
,  // measure 72
0100
0000
1000
0000
,  // measure 73
0001
0000
0010
0000
,  // measure 74
0100
0000
0010
0000
,  // measure 75
0010
0000
0100
0000
;
