#TITLE:Don't Need Her But I Want Her;
#SUBTITLE:;
#ARTIST:Dancing Monkeys Project;
#TITLETRANSLIT:;
#SUBTITLETRANSLIT:;
#ARTISTTRANSLIT:;
#GENRE:;
#CREDIT:Gorilla v1.1.3 (Dancing Monkeys v1.06);
#BANNER:ecc887b5bbe63b8d5bc5dc68524e51cd.300x300x1.png;
#BACKGROUND:maxresdefault.png;
#LYRICSPATH:;
#CDTITLE:;
#MUSIC:Don't Need Her But I Want Her.mp3;
#OFFSET:-1.871224;
#SAMPLESTART:1.871224;
#SAMPLELENGTH:12.000000;
#SELECTABLE:YES;
#BPMS:0.000000=105.000000
;
#STOPS:
;
#BGCHANGES:;
#KEYSOUNDS:;
#ATTACKS:;

//---------------dance-single - Basic----------------
#NOTES:
     dance-single:
     Basic:
     Easy:
     4:
     0.207995,0.176900,0.014560,0.014560,0.000000,100.000000,99.000000,1.000000,1.000000,0.000000,0.000000,0.207995,0.176900,0.014560,0.014560,0.000000,100.000000,99.000000,1.000000,1.000000,0.000000,0.000000:
// measure 0
1000
2000
0000
3000
,  // measure 1
0000
0010
0000
1000
,  // measure 2
0000
1000
0000
0001
,  // measure 3
0000
0000
0100
0100
,  // measure 4
0001
0010
0100
0100
,  // measure 5
0010
0100
0100
0100
,  // measure 6
1000
1000
1000
0001
,  // measure 7
0001
0100
1000
0100
,  // measure 8
0001
1000
0010
0100
,  // measure 9
1000
0100
1000
0100
,  // measure 10
0001
0010
0001
0100
,  // measure 11
0000
0000
0000
1001
0000
0000
0010
0000
,  // measure 12
1000
0100
0001
0100
,  // measure 13
0001
1000
0010
0100
,  // measure 14
1000
0100
0001
0001
,  // measure 15
0001
1000
0010
0100
,  // measure 16
1000
0100
0001
0001
,  // measure 17
0001
1000
0010
0100
,  // measure 18
1000
0100
0001
0001
,  // measure 19
0010
1000
0100
0010
,  // measure 20
0100
0001
0100
0010
,  // measure 21
0001
1000
0100
0010
,  // measure 22
0001
1000
0010
0100
,  // measure 23
0001
0010
1000
0010
,  // measure 24
1000
0001
0010
1000
,  // measure 25
0010
1000
0001
0100
,  // measure 26
1000
0001
0010
0100
,  // measure 27
0001
0000
0000
0000
;

//---------------dance-single - Standard----------------
#NOTES:
     dance-single:
     Standard:
     Medium:
     5:
     0.284953,0.315944,0.116477,0.014560,0.000000,137.000000,129.000000,8.000000,1.000000,0.000000,0.000000,0.284953,0.315944,0.116477,0.014560,0.000000,137.000000,129.000000,8.000000,1.000000,0.000000,0.000000:
1000
0000
0001
0000
1000
0000
0100
0000
,
1000
0000
0001
1000
0010
0000
0100
0000
,
1000
0000
0001
0000
1000
0000
0100
0000
,
1000
0001
0100
0001
0001
0000
1000
0000
,
0001
0000
1000
0001
0100
0000
0010
0000
,
1000
0001
0100
0001
0001
0000
1000
0000
,
1000
0000
0001
0000
1000
0000
0100
0000
,
1000
0001
0100
0001
0001
0000
1000
0000
,
0001
0100
0010
0000
0100
0000
0010
0000
,
1000
0001
0100
0001
0001
0000
1000
0000
,
0001
0000
1000
0001
0100
0000
0010
0000
,
0000
0000
0000
0001
0010
0000
1001
0000
,
1000
0000
0100
0010
0100
0000
0101
0000
,
0110
0000
0100
1000
0100
0010
0100
0010
,
1000
0000
0100
0010
0100
0000
0101
0000
,
0110
0000
0100
1000
0100
0010
0100
0010
,
1000
0000
0100
0010
0100
0000
0101
0000
,
0110
0000
0100
1000
0100
0010
0100
0010
,
1000
0000
0100
0010
0100
0000
0101
0000
,
0200
0000
0001
0000
0000
0000
0010
0000
,
0300
0000
0010
0000
0100
0000
0001
0000
,
0001
0000
0100
0000
0010
0000
1000
0000
,
1000
0000
0010
0000
0100
0000
0001
0000
,
0002
0000
0010
0000
0000
0000
0001
0000
,
0003
0000
0010
0000
0100
0000
0001
0000
,
1000
0000
0010
0000
0100
0000
0001
0000
,
1000
0000
0100
0000
0010
0000
0001
0000
,
0001
0010
0000
0000
0000
0000
0000
0000
,
0000
0000
0000
0000
0000
0000
0000
0000
,
;

//---------------dance-single - Heavy----------------
#NOTES:
     dance-single:
     Heavy:
     Hard:
     6:
     0.332792,0.335691,0.116477,0.029119,0.000000,160.000000,152.000000,8.000000,2.000000,0.000000,0.000000,0.332792,0.335691,0.116477,0.029119,0.000000,160.000000,152.000000,8.000000,2.000000,0.000000,0.000000:
0001
0000
0100
0100
0010
0000
1000
0000
,
1000
0010
1000
0001
0100
0000
0010
0000
,
0001
0000
0100
0100
0010
0000
1000
0000
,
0001
1000
0001
0010
0010
0000
0001
1000
,
1000
0000
0100
0010
0100
1000
0001
0000
,
0001
1000
0001
0010
0010
0000
0001
1000
,
0001
0000
0100
0100
0010
0000
1000
0000
,
0001
1000
0001
0010
0010
0000
0001
1000
,
0001
0100
0001
0100
0000
0000
0010
0100
,
0001
1000
0001
0010
0010
0000
0001
1000
,
1000
0000
0100
0010
0100
1000
0001
0000
,
0001
0000
0000
0100
0010
0000
0011
0000
,
0001
0100
0010
0100
0010
0000
0011
0000
,
1100
0000
0010
0100
0001
0100
0010
0100
,
0001
0100
0010
0100
0010
0000
0011
0000
,
1100
0000
0010
0100
0001
0100
0010
0100
,
0001
0100
0010
0100
0010
0000
0011
0000
,
1100
0000
0010
0100
0001
0100
0010
0100
,
0001
0100
0010
0100
0010
0000
0011
0000
,
0200
0000
0010
0000
0000
0000
0010
0000
,
0300
0000
0100
0000
0010
0000
0001
0010
,
1000
0000
0100
0000
0010
0000
0001
0010
,
0001
0000
0100
0000
0010
0000
1000
0010
,
0002
0000
1000
0000
0000
0000
1000
0000
,
0003
0000
0100
0000
0010
0000
0001
0010
,
0001
0000
0100
0000
0010
0000
1000
0010
,
1000
0000
0010
0000
0100
0000
0001
0100
,
1000
0010
0000
0000
0000
0000
0000
0000
,
0000
0000
0000
0000
0000
0000
0000
0000
,
;
